Начать новую тему Ответить на тему
Статистика раздачи
Размер: 231.91 МБ | Добавлен: 26 мар 2019, 18:47 | Скачали: 0
Сидеров: 0  [0 байт/сек]    Личеров: 0  [0 байт/сек]
Пред. тема | След. тема 

Автор
Сообщение

СообщениеДобавлено: 26 мар 2019, 18:47 

Ответить с цитатой 

Gaspard Royant / 10 Hits Wonder
Жанр: Rock, Pop
Носитель: CD
Страна-производитель диска (релиза): France
Год издания: 2014
Издатель (лейбл): Sardanapale
Номер по каталогу: GR - 005
Страна исполнителя (группы): France
Аудиокодек: FLAC (*.flac)
Тип рипа: tracks+.cue
Битрейт аудио: lossless
Продолжительность: 33:10
Источник (релизер): BozMozzis
Наличие сканов в содержимом раздачи: нет
Треклист:
01. Back to Where We Aim (3:12)
02. All the Cool in You Is Me (3:17)
03. This Year Belongs to You (2:51)
04. Break-Up Bar (4:13)
05. All is Truth (3:25)
06. The One You Need (4:05)
07. The Woods (2:33)
08. Marty McFly (2:03)
09. Europe (3:11)
10. Monkeytown (4:16)
Код:
Exact Audio Copy V1.0 beta 3 from 29. August 2011
EAC extraction logfile from 7. May 2015, 6:46
Gaspard Royant / 10 Hits Wonder
Used drive  : MATSHITADVD-RAM UJ890AS   Adapter: 0  ID: 1
Read mode               : Secure
Utilize accurate stream : Yes
Defeat audio cache      : Yes
Make use of C2 pointers : No
Read offset correction                      : 102
Overread into Lead-In and Lead-Out          : No
Fill up missing offset samples with silence : Yes
Delete leading and trailing silent blocks   : No
Null samples used in CRC calculations       : Yes
Used interface                              : Native Win32 interface for Win NT & 2000
Gap handling                                : Appended to previous track
Used output format              : User Defined Encoder
Selected bitrate                : 896 kBit/s
Quality                         : High
Add ID3 tag                     : No
Command line compressor         : D:\PROGRAMMES JULIE\Exact Audio Copy\Flac\flac.exe
Additional command line options : -8 -V -T "ARTIST=%artist%" -T "TITLE=%title%" -T "ALBUM=%albumtitle%" -T "DATE=%year%" -T "TRACKNUMBER=%tracknr%" -T "GENRE=%genre%" -T "PERFORMER=%albuminterpret%" -T "COMPOSER=%composer%" %haslyrics%--tag-from-file=LYRICS="%lyricsfile%"%haslyrics% -T "ALBUMARTIST=%albumartist%" -T "DISCNUMBER=%cdnumber%" -T "TOTALDISCS=%totalcds%" -T "TOTALTRACKS=%numtracks%" -T "COMMENT=%comment%" %source% -o %dest%
TOC of the extracted CD
     Track |   Start  |  Length  | Start sector | End sector
    ---------------------------------------------------------
        1  |  0:00.00 |  3:12.22 |         0    |    14421
        2  |  3:12.22 |  3:17.03 |     14422    |    29199
        3  |  6:29.25 |  2:51.42 |     29200    |    42066
        4  |  9:20.67 |  4:13.53 |     42067    |    61094
        5  | 13:34.45 |  3:25.72 |     61095    |    76541
        6  | 17:00.42 |  4:05.22 |     76542    |    94938
        7  | 21:05.64 |  2:33.10 |     94939    |   106423
        8  | 23:38.74 |  2:03.04 |    106424    |   115652
        9  | 25:42.03 |  3:11.57 |    115653    |   130034
       10  | 28:53.60 |  4:16.32 |    130035    |   149266
Track  1
     Filename F:\MUSIQUES FLAC\Gaspard Royant - 10 Hits Wonder (2013) [FLAC]\01 - Back to Where We Aim.wav
     Pre-gap length  0:00:02.00
     Peak level 99.4 %
     Extraction speed 1.4 X
     Track quality 100.0 %
     Test CRC 20FDA520
     Copy CRC 20FDA520
     Accurately ripped (confidence 2)  [C425968D]  (AR v2)
     Copy OK
Track  2
     Filename F:\MUSIQUES FLAC\Gaspard Royant - 10 Hits Wonder (2013) [FLAC]\02 - All the Cool in You Is Me.wav
     Peak level 99.4 %
     Extraction speed 1.5 X
     Track quality 100.0 %
     Test CRC 6F831523
     Copy CRC 6F831523
     Accurately ripped (confidence 2)  [1AD7335D]  (AR v2)
     Copy OK
Track  3
     Filename F:\MUSIQUES FLAC\Gaspard Royant - 10 Hits Wonder (2013) [FLAC]\03 - This Year Belongs to You.wav
     Peak level 99.4 %
     Extraction speed 1.6 X
     Track quality 100.0 %
     Test CRC FF8BC697
     Copy CRC FF8BC697
     Accurately ripped (confidence 2)  [1FD1F843]  (AR v2)
     Copy OK
Track  4
     Filename F:\MUSIQUES FLAC\Gaspard Royant - 10 Hits Wonder (2013) [FLAC]\04 - Break-Up Bar.wav
     Peak level 99.4 %
     Extraction speed 1.8 X
     Track quality 100.0 %
     Test CRC F41F2174
     Copy CRC F41F2174
     Accurately ripped (confidence 2)  [7E7648C3]  (AR v2)
     Copy OK
Track  5
     Filename F:\MUSIQUES FLAC\Gaspard Royant - 10 Hits Wonder (2013) [FLAC]\05 - All Is Truth.wav
     Peak level 99.4 %
     Extraction speed 1.9 X
     Track quality 100.0 %
     Test CRC 859C81DF
     Copy CRC 859C81DF
     Accurately ripped (confidence 2)  [56D0DA5C]  (AR v2)
     Copy OK
Track  6
     Filename F:\MUSIQUES FLAC\Gaspard Royant - 10 Hits Wonder (2013) [FLAC]\06 - The One You Need.wav
     Peak level 99.4 %
     Extraction speed 2.1 X
     Track quality 100.0 %
     Test CRC B038AEC8
     Copy CRC B038AEC8
     Accurately ripped (confidence 2)  [D85F6E87]  (AR v2)
     Copy OK
Track  7
     Filename F:\MUSIQUES FLAC\Gaspard Royant - 10 Hits Wonder (2013) [FLAC]\07 - The Woods.wav
     Peak level 99.4 %
     Extraction speed 2.0 X
     Track quality 100.0 %
     Test CRC E7CFE7AA
     Copy CRC E7CFE7AA
     Accurately ripped (confidence 2)  [7F4AF887]  (AR v2)
     Copy OK
Track  8
     Filename F:\MUSIQUES FLAC\Gaspard Royant - 10 Hits Wonder (2013) [FLAC]\08 - Marty McFly.wav
     Peak level 99.4 %
     Extraction speed 1.9 X
     Track quality 100.0 %
     Test CRC BFFC377B
     Copy CRC BFFC377B
     Accurately ripped (confidence 2)  [BF7EADF9]  (AR v2)
     Copy OK
Track  9
     Filename F:\MUSIQUES FLAC\Gaspard Royant - 10 Hits Wonder (2013) [FLAC]\09 - Europe.wav
     Peak level 99.4 %
     Extraction speed 2.2 X
     Track quality 100.0 %
     Test CRC F66239FA
     Copy CRC F66239FA
     Accurately ripped (confidence 2)  [4948F9F3]  (AR v2)
     Copy OK
Track 10
     Filename F:\MUSIQUES FLAC\Gaspard Royant - 10 Hits Wonder (2013) [FLAC]\10 - Monkeytown.wav
     Peak level 99.4 %
     Extraction speed 2.4 X
     Track quality 100.0 %
     Test CRC 58FEAF70
     Copy CRC 58FEAF70
     Accurately ripped (confidence 2)  [7CCDFFBC]  (AR v2)
     Copy OK
All tracks accurately ripped
No errors occurred
End of status report
---- CUETools DB Plugin V2.1.3
[CTDB TOCID: XpdTcG_gzC4GgBgqEXjO5foDTMU-] found, Submit result: XpdTcG_gzC4GgBgqEXjO5foDTMU- has been confirmed
[87d2ca68] (1/1) Accurately ripped
==== Log checksum 104317E8DE8724777AC39C99F1439E40A0C4A440F618B0C1031C0638479F55A3 ====
Код:
REM DATE 2013
REM DISCID 7307C60A
REM COMMENT "ExactAudioCopy v1.0b3"
PERFORMER "Gaspard Royant"
TITLE "10 Hits Wonder"
FILE "01 - Back to Where We Aim.wav" WAVE
  TRACK 01 AUDIO
    TITLE "Back to Where We Aim"
    PERFORMER "Gaspard Royant"
    FLAGS DCP
    INDEX 01 00:00:00
FILE "02 - All the Cool in You Is Me.wav" WAVE
  TRACK 02 AUDIO
    TITLE "All the Cool in You Is Me"
    PERFORMER "Gaspard Royant"
    FLAGS DCP
    INDEX 01 00:00:00
FILE "03 - This Year Belongs to You.wav" WAVE
  TRACK 03 AUDIO
    TITLE "This Year Belongs to You"
    PERFORMER "Gaspard Royant"
    FLAGS DCP
    INDEX 01 00:00:00
FILE "04 - Break-Up Bar.wav" WAVE
  TRACK 04 AUDIO
    TITLE "Break-Up Bar"
    PERFORMER "Gaspard Royant"
    FLAGS DCP
    INDEX 01 00:00:00
FILE "05 - All Is Truth.wav" WAVE
  TRACK 05 AUDIO
    TITLE "All Is Truth"
    PERFORMER "Gaspard Royant"
    FLAGS DCP
    INDEX 01 00:00:00
FILE "06 - The One You Need.wav" WAVE
  TRACK 06 AUDIO
    TITLE "The One You Need"
    PERFORMER "Gaspard Royant"
    FLAGS DCP
    INDEX 01 00:00:00
FILE "07 - The Woods.wav" WAVE
  TRACK 07 AUDIO
    TITLE "The Woods"
    PERFORMER "Gaspard Royant"
    FLAGS DCP
    INDEX 01 00:00:00
FILE "08 - Marty McFly.wav" WAVE
  TRACK 08 AUDIO
    TITLE "Marty McFly"
    PERFORMER "Gaspard Royant"
    FLAGS DCP
    INDEX 01 00:00:00
FILE "09 - Europe.wav" WAVE
  TRACK 09 AUDIO
    TITLE "Europe"
    PERFORMER "Gaspard Royant"
    FLAGS DCP
    INDEX 01 00:00:00
FILE "10 - Monkeytown.wav" WAVE
  TRACK 10 AUDIO
    TITLE "Monkeytown"
    PERFORMER "Gaspard Royant"
    FLAGS DCP
    INDEX 01 00:00:00
Код:
foobar2000 1.1.10 / Dynamic Range Meter 1.1.1
log date: 2016-08-26 17:24:23
--------------------------------------------------------------------------------
Analyzed: Gaspard Royant / 10 Hits Wonder
--------------------------------------------------------------------------------
DR         Peak         RMS     Duration Track
--------------------------------------------------------------------------------
DR6       -0.05 dB    -7.03 dB      3:12 ?-Back to Where We Aim
DR6       -0.05 dB    -6.92 dB      3:17 ?-All the Cool in You Is Me
DR6       -0.05 dB    -7.54 dB      2:52 ?-This Year Belongs to You
DR6       -0.05 dB    -7.84 dB      4:14 ?-Break-Up Bar
DR6       -0.05 dB    -7.31 dB      3:26 ?-All Is Truth
DR5       -0.05 dB    -6.93 dB      4:05 ?-The One You Need
DR7       -0.05 dB    -8.65 dB      2:33 ?-The Woods
DR6       -0.05 dB    -6.66 dB      2:03 ?-Marty McFly
DR6       -0.05 dB    -7.72 dB      3:12 ?-Europe
DR5       -0.05 dB    -7.36 dB      4:16 ?-Monkeytown
--------------------------------------------------------------------------------
Number of tracks:  10
Official DR value: DR6
Samplerate:        44100 Hz
Channels:          2
Bits per sample:   16
Bitrate:           998 kbps
Codec:             FLAC
================================================================================
Французский рокер Гаспар Руаян вернулся к своему первому полноформатному альбому, спустя всего несколько коротких месяцев после издания трилогии 45-ок. После его трилогии, которая несла дух Роя Орбисона, Фила Спектора, Отиса Реддинга, Brill Building или Stax records и не осталась незамеченной. Гаспар горд представить свой первый полноформатный альбом! Произведенный частично в легендарных Toe-Rag Studios Лиамом Уотсоном, полностью записанный на старомодной аналоговой аппаратуре , этот альбом содержит А-стороны ранее выпущенных 45-к, а также несколько совершенно новых песен. Собрание трехминутной мгновенной классики... одна за другой....
Правила, инструкции, FAQ!!!
Торрент  Добавлен [26 мар 2019, 18:47] Скачать торрент Магнет ссылка
Скачать торрент
[ Размер 19.38 КБ / Просмотров 0 ]

Статус
Проверен 
 
Размер  231.91 МБ
Приватный: Нет (DHT включён)
.torrent скачан  0
 


     Отправить личное сообщение
   
Страница 1 из 1
Показать сообщения за:  Поле сортировки  
Начать новую тему Ответить на тему


Сейчас этот форум просматривают: нет зарегистрированных пользователей и гости: 0


Вы не можете начинать темы
Вы не можете отвечать на сообщения
Вы не можете редактировать свои сообщения
Вы не можете удалять свои сообщения
Вы не можете добавлять вложения

Перейти:  
cron