Начать новую тему Ответить на тему
Статистика раздачи
Размер: 337.68 МБ | Добавлен: 26 мар 2019, 20:34 | Скачали: 0
Сидеров: 1  [0 байт/сек]    Личеров: 1  [0 байт/сек]
Пред. тема | След. тема 

Автор
Сообщение

СообщениеДобавлено: 26 мар 2019, 20:34 

Ответить с цитатой 

Cliff Richard – Rock’n’Roll Juvenile (1979) [Remastered with Bonus Tracks]
Жанр: Rock, Pop
Дата выпуска диска: сентябрь 1979 (Original LP), 2001 (Remastered for CD)
UPC: 7243 5 33115 2 0
Страна: UK
Производитель диска: EMI (с) 1979, 2001
Аудио кодек: FLAC
Тип рипа: image+.cue
Битрейт аудио: lossless
Продолжительность: 50:51
Tracklist:
01. Monday Thru' Friday (3:47)
02. Doing Fine (3:06)
03. Cities May Fall (4:17)
04. You Know That I Love You (2:54)
05. My Luck Won't Change (4:13)
06. Rock 'N' Roll Juvenile (2:47)
07. Sci-Fi (3:47)
08. Fallin' in Luv (3:11)
09. Carrie (3:43)
10. Hot Shot (3:23)
11. Language of Love (4:40)
12. We Don't Talk Anymore (4:18)
13. Walking in the Light [bonus track] (3:17)
14. Moving In [bonus track] (3:24)
Код:
Exact Audio Copy V0.99 prebeta 4 from 23. January 2008
Отчёт EAC об извлечении, выполненном 30. сентября 2009, 15:45
Cliff Richard / Rock'n'Roll Juvenile
Дисковод: ASUS    SDRW-08D1S-U   Adapter: 2  ID: 0
Режим чтения                 : Достоверность
Использование точного потока : Да
Отключение кэша аудио        : Да
Использование указателей C2  : Нет
Коррекция смещения при чтении                     : 667
Способность читать области Lead-in и Lead-out     : Да
Заполнение пропущенных сэмплов тишиной            : Да
Удаление блоков с тишиной в начале и конце        : Нет
При вычислениях CRC использовались нулевые сэмплы : Да
Интерфейс                                         : Встроенный Win32-интерфейс для Win NT/2000
Выходной формат : Внутренние WAV-операции
Формат сэмплов  : 44.100 Гц; 16 бит; стерео
TOC извлечённого CD
     Трек |   Старт  | Длительность | Начальный сектор | Конечный сектор
    ---------------------------------------------------------------------
       1  |  0:00.00 |    3:47.02   |           0      |      17026
       2  |  3:47.02 |    3:06.58   |       17027      |      31034
       3  |  6:53.60 |    4:17.65   |       31035      |      50374
       4  | 11:11.50 |    2:54.14   |       50375      |      63438
       5  | 14:05.64 |    4:13.16   |       63439      |      82429
       6  | 18:19.05 |    2:47.16   |       82430      |      94970
       7  | 21:06.21 |    3:47.23   |       94971      |     112018
       8  | 24:53.44 |    3:11.09   |      112019      |     126352
       9  | 28:04.53 |    3:43.43   |      126353      |     143120
      10  | 31:48.21 |    3:23.00   |      143121      |     158345
      11  | 35:11.21 |    4:40.49   |      158346      |     179394
      12  | 39:51.70 |    4:18.04   |      179395      |     198748
      13  | 44:09.74 |    3:17.02   |      198749      |     213525
      14  | 47:27.01 |    3:24.62   |      213526      |     228887
Характеристики диапазона извлечения и сообщения об ошибках
Выбранный диапазон
     Имя файла C:\Мои документы\Моя музыка\Cliff Richard - Rock'n'Roll Juvenile.wav
     Пиковый уровень 98.9 %
     Качество диапазона 100.0 %
     CRC копии 8FED2086
     Копирование... OK
Ошибок не произошло
AccurateRip: сводка
Трек  1  точное извлечение (доверие 3)  [BE1386BA]
Трек  2  точное извлечение (доверие 3)  [7DA0F748]
Трек  3  точное извлечение (доверие 3)  [A0969391]
Трек  4  точное извлечение (доверие 3)  [48E24A4A]
Трек  5  точное извлечение (доверие 3)  [90AD33AB]
Трек  6  точное извлечение (доверие 4)  [E05BFC24]
Трек  7  точное извлечение (доверие 4)  [7B31AB32]
Трек  8  точное извлечение (доверие 4)  [0D1DE193]
Трек  9  точное извлечение (доверие 4)  [B77E0EE2]
Трек 10  точное извлечение (доверие 3)  [CA041574]
Трек 11  точное извлечение (доверие 3)  [6C9EE563]
Трек 12  точное извлечение (доверие 4)  [0CEFE45C]
Трек 13  точное извлечение (доверие 3)  [35DF574A]
Трек 14  точное извлечение (доверие 3)  [2CF8D603]
Все треки извлечены точно
Конец отчёта

Собственноручно сделанный рип с фирменного диска из моей коллекции.
Правила, инструкции, FAQ!!!
Торрент  Добавлен [26 мар 2019, 20:34] Скачать торрент Магнет ссылка
Скачать торрент
[ Размер 14.57 КБ / Просмотров 6 ]

Статус
Проверен 
 
Размер  337.68 МБ
Приватный: Нет (DHT включён)
.torrent скачан  0
 


     Отправить личное сообщение
   
Страница 1 из 1
Показать сообщения за:  Поле сортировки  
Начать новую тему Ответить на тему


Сейчас этот форум просматривают: нет зарегистрированных пользователей и гости: 0


Вы не можете начинать темы
Вы не можете отвечать на сообщения
Вы не можете редактировать свои сообщения
Вы не можете удалять свои сообщения
Вы не можете добавлять вложения

Перейти:  
cron