Начать новую тему Ответить на тему
Статистика раздачи
Размер: 245.43 МБ | Добавлен: 26 мар 2019, 21:06 | Скачали: 0
Сидеров: 0  [0 байт/сек]    Личеров: 0  [0 байт/сек]
Пред. тема | След. тема 

Автор
Сообщение

СообщениеДобавлено: 26 мар 2019, 21:06 

Ответить с цитатой 

Joel Dayde / H.L.M. Blues / J'en Ai Marre Du Quotidien
Жанр: Rock, Pop, Blues Rock, Pop Rock
Носитель: WEB
Год издания: 1977/2017
Издатель (лейбл): Barclay
Страна исполнителя (группы): France
Аудиокодек: FLAC (*.flac)
Тип рипа: tracks
Битрейт аудио: lossless
Продолжительность: 00:37:52
Источник (релизер): 7digital
Наличие сканов в содержимом раздачи: Front
Треклист:
01. J'En Ai Marre Du Quotidien
02. Reesseem Blues
03. Day After Day (You Want To Keep My Mind)
04. Histoires De Petites Bulles
05. Tous Les Jours, Moi J'Ai Les Moules
06. J'Ai Pas L'Moral
07. Le Rythme Des Indiens
08. Ballade A Medor
09. HLM Blues
10. La Complainte De Marie-Bleno
11. La Fête Est Finie... (Il Faut S'En Aller)
Код:
foobar2000 1.1.10 / Dynamic Range Meter 1.1.1
log date: 2018-03-14 12:42:27
--------------------------------------------------------------------------------
Analyzed: Joel Dayde / J'en ai marre du quotidien (HLM Blues)
--------------------------------------------------------------------------------
DR         Peak         RMS     Duration Track
--------------------------------------------------------------------------------
DR11       0.00 dB   -11.78 dB      2:48 ?-J'En Ai Marre Du Quotidien
DR12       0.00 dB   -14.00 dB      4:15 ?-Reesseem Blues
DR12       0.00 dB   -14.30 dB      4:42 ?-Day After Day (You Want To Keep My Mind)
DR13       0.00 dB   -15.29 dB      3:44 ?-Histoires De Petites Bulles
DR11       0.00 dB   -13.13 dB      2:36 ?-Tous Les Jours, Moi J'Ai Les Moules
DR12       0.00 dB   -13.49 dB      3:21 ?-J'Ai Pas L'Moral
DR12       0.00 dB   -13.97 dB      3:49 ?-Le Rythme Des Indiens
DR13      -2.30 dB   -18.18 dB      3:18 ?-Ballade A Medor
DR11       0.00 dB   -12.37 dB      3:21 ?-HLM Blues
DR13       0.00 dB   -15.67 dB      2:17 ?-La Complainte De Marie-Bleno
DR12       0.00 dB   -14.11 dB      3:41 ?-La Fête Est Finie... (Il Faut S'En Aller)
--------------------------------------------------------------------------------
Number of tracks:  11
Official DR value: DR12
Samplerate:        44100 Hz
Channels:          2
Bits per sample:   16
Bitrate:           906 kbps
Codec:             FLAC
================================================================================
Код:
-----------------------
DON'T MODIFY THIS FILE
-----------------------
PERFORMER: auCDtect Task Manager, ver. 1.5.1RC4 build 1.5.1.5
Copyright (c) 2008-2010 y-soft. All rights reserved
[url=http://y-soft.org]http://y-soft.org[/url]
ANALYZER: auCDtect: CD records authenticity detector, version 0.8.2
Copyright (c) 2004 Oleg Berngardt. All rights reserved.
Copyright (c) 2004 Alexander Djourik. All rights reserved.
FILE: 11. La Fête Est Finie... (Il Faut S'En Aller).flac
  Size: 25315330 Hash: 545DC87185CB0C3344B399F1010F9382 Accuracy: -m0
  Conclusion: CDDA 100%
  Signature: BF04AC9FF986B5D5939494F48A772C5C673C3BE3
FILE: 10. La Complainte De Marie-Bleno.flac
  Size: 14061117 Hash: 5DA3815F4DBBDD140A9B6158266527D8 Accuracy: -m0
  Conclusion: CDDA 100%
  Signature: 730868553893D9FB5AD4F502F7BE9A3B4C341145
FILE: 09. HLM Blues.flac
  Size: 25008072 Hash: 2E2708E11DE7EB0AF912B95CE5C0BB72 Accuracy: -m0
  Conclusion: CDDA 100%
  Signature: 4BE18BE44DC371DD38805FDCC816C7D812365350
FILE: 08. Ballade A Medor.flac
  Size: 20602007 Hash: 2507988806EB6CCD8DA5B3089C2C00E6 Accuracy: -m0
  Conclusion: CDDA 100%
  Signature: 7D961839BF412D6B214ADDE6E6C0C4FA9BEC5AA8
FILE: 07. Le Rythme Des Indiens.flac
  Size: 26465246 Hash: 9FFD9315A3BC324CF038AAC4BF75F8E5 Accuracy: -m0
  Conclusion: CDDA 100%
  Signature: A7B88F3F99B18316A9C42AD0A5FFBC7C712A4417
FILE: 06. J'Ai Pas L'Moral.flac
  Size: 23679053 Hash: D35886C032CB9B59C9B7AABA73656E75 Accuracy: -m0
  Conclusion: CDDA 99%
  Signature: A8405231D09B59DD0BA2140DB7428026FC9114C9
FILE: 05. Tous Les Jours, Moi J'Ai Les Moules.flac
  Size: 17543020 Hash: CFCDA4D9416DFEC812DEED7D946A86D9 Accuracy: -m0
  Conclusion: CDDA 100%
  Signature: 74A010065658B1804D96492CC995524A23C17F49
FILE: 04. Histoires De Petites Bulles.flac
  Size: 23522646 Hash: 2D5E36AF0BD51686E2C1F7A54298DAAA Accuracy: -m0
  Conclusion: CDDA 100%
  Signature: 0BE22F6E4743AE252AB86551B18A52B1936B203F
FILE: 03. Day After Day (You Want To Keep My Mind).flac
  Size: 31693246 Hash: 8AEB45326CAE34B277B5FE42BF9C3A15 Accuracy: -m0
  Conclusion: CDDA 100%
  Signature: 3DC0DA8C5F90B8B61140C9C70BFF062EE880452A
FILE: 02. Reesseem Blues.flac
  Size: 28865240 Hash: 819486776B5CFF67902AF71C9A8EB406 Accuracy: -m0
  Conclusion: CDDA 100%
  Signature: 1D491BF17795E50C36406238D0963B06D573DA3D
FILE: 01. J'En Ai Marre Du Quotidien.flac
  Size: 20295089 Hash: 03FC135B67404645AAE889E7097E5005 Accuracy: -m0
  Conclusion: CDDA 100%
  Signature: 4854F557AF7CABD443DF804D8BA412DF922CC226
[url=https://fr.wikipedia.org/wiki/Joël_Daydé]https://fr.wikipedia.org/wiki/Joël_Daydé[/url];
Arranged By – Jean-Daniel Mercier, Joël Daydé (tracks: 3,6,11)
Bass – Dominique Blanc-Francard
Brass – Christian Guizien, Gilbert Dall'anese, Michel Barro, Tony Russot
Chorus, Percussion – Alain Sireguy
Drums, Percussion – Roger Secco
Guitar – Joël Daydé
Guitar, Bass – Eric Sirkel
Percussion – Koko Ameziane

Раздаю до первых 5-ти скачавших, на раздачи не возвращаюсь...

Правила, инструкции, FAQ!!!
Торрент  Добавлен [26 мар 2019, 21:06] Скачать торрент Магнет ссылка
Скачать торрент
[ Размер 20.46 КБ / Просмотров 2 ]

Статус
Проверен 
 
Размер  245.43 МБ
Приватный: Нет (DHT включён)
.torrent скачан  0
 


     Отправить личное сообщение
   
Страница 1 из 1
Показать сообщения за:  Поле сортировки  
Начать новую тему Ответить на тему


Сейчас этот форум просматривают: нет зарегистрированных пользователей и гости: 0


Вы не можете начинать темы
Вы не можете отвечать на сообщения
Вы не можете редактировать свои сообщения
Вы не можете удалять свои сообщения
Вы не можете добавлять вложения

Перейти:  
cron
cron