Начать новую тему Ответить на тему
Статистика раздачи
Размер: 257.27 МБ | Добавлен: 26 мар 2019, 19:59 | Скачали: 0
Сидеров: 0  [0 байт/сек]    Личеров: 0  [0 байт/сек]
Пред. тема | След. тема 

Автор
Сообщение

СообщениеДобавлено: 26 мар 2019, 19:59 

Ответить с цитатой 

Billy Joel - Glass Houses

Жанр: Rock, Pop
Год выпуска диска: 2009 (Original LP: 1980)
Производитель диска: Japan
Аудио кодек: FLAC
Тип рипа: image+.cue
Битрейт аудио: lossless
Продолжительность: 35:00
Треклист:
01 "You May Be Right" – 4:15
02 "Sometimes a Fantasy" – 3:40
03 "Don't Ask Me Why" – 2:59
04 "It's Still Rock and Roll to Me" – 2:57
05 "All for Leyna" – 4:15
06 "I Don't Want to Be Alone" – 3:57
07 "Sleeping With the Television On" – 3:02
08 "C'Était Toi (You Were the One)" – 3:25
09 "Close to the Borderline" – 3:47
10 "Through the Long Night" – 2:43
Доп. информация:
All Songs written by Billy Joel.
Produced by Phil Ramone.
Источник:
Оригинальный CD из моей личной коллекции.
[Sony Music International (Japan) Inc. SICP-20130. Made in Japan.]
Сканы (300 dpi, PNG) прилагаются.
Код:
Exact Audio Copy V0.99 prebeta 5 from 4. May 2009
EAC extraction logfile from 1. September 2010, 17:43
Billy Joel / Glass Houses
Used drive  : ASUS    DRW-2014L1   Adapter: 0  ID: 0
Read mode               : Secure
Utilize accurate stream : Yes
Defeat audio cache      : Yes
Make use of C2 pointers : No
Read offset correction                      : 6
Overread into Lead-In and Lead-Out          : No
Fill up missing offset samples with silence : Yes
Delete leading and trailing silent blocks   : No
Null samples used in CRC calculations       : Yes
Used interface                              : Native Win32 interface for Win NT & 2000
Used output format              : User Defined Encoder
Selected bitrate                : 1024 kBit/s
Quality                         : High
Add ID3 tag                     : No
Command line compressor         : C:\Program Files\Exact Audio Copy\FLAC\FLAC.EXE
Additional command line options : -8 -V -T "ARTIST=%a" -T "TITLE=%t" -T "ALBUM=%g" -T "DATE=%y" -T "TRACKNUMBER=%n" -T "GENRE=%m" -T "COMMENT=EAC FLAC -8" %s
TOC of the extracted CD
     Track |   Start  |  Length  | Start sector | End sector
    ---------------------------------------------------------
        1  |  0:00.00 |  4:15.65 |         0    |    19189
        2  |  4:15.65 |  3:39.72 |     19190    |    35686
        3  |  7:55.62 |  2:59.13 |     35687    |    49124
        4  | 10:55.00 |  2:57.20 |     49125    |    62419
        5  | 13:52.20 |  4:15.10 |     62420    |    81554
        6  | 18:07.30 |  3:57.24 |     81555    |    99353
        7  | 22:04.54 |  3:02.66 |     99354    |   113069
        8  | 25:07.45 |  3:25.32 |    113070    |   128476
        9  | 28:33.02 |  3:47.43 |    128477    |   145544
       10  | 32:20.45 |  2:44.17 |    145545    |   157861
Range status and errors
Selected range
     Filename C:\Billy Joel - Glass Houses (1980) (Blu-spec CD) [FLAC] {Sony Music Japan SICP-20130}\Billy Joel - Glass Houses.wav
     Peak level 99.8 %
     Range quality 100.0 %
     Test CRC 8CF259E8
     Copy CRC 8CF259E8
     Copy OK
No errors occurred
AccurateRip summary
Track  1  not present in database
Track  2  not present in database
Track  3  not present in database
Track  4  not present in database
Track  5  not present in database
Track  6  not present in database
Track  7  not present in database
Track  8  not present in database
Track  9  not present in database
Track 10  not present in database
None of the tracks are present in the AccurateRip database
End of status report


Просьба не размещать данный релиз на других ресурсах.
Правила, инструкции, FAQ!!!
Торрент  Добавлен [26 мар 2019, 19:59] Скачать торрент Магнет ссылка
Скачать торрент
[ Размер 11.54 КБ / Просмотров 4 ]

Статус
Проверен 
 
Размер  257.27 МБ
Приватный: Нет (DHT включён)
.torrent скачан  0
 


     Отправить личное сообщение
   
Страница 1 из 1
Показать сообщения за:  Поле сортировки  
Начать новую тему Ответить на тему


Сейчас этот форум просматривают: нет зарегистрированных пользователей и гости: 0


Вы не можете начинать темы
Вы не можете отвечать на сообщения
Вы не можете редактировать свои сообщения
Вы не можете удалять свои сообщения
Вы не можете добавлять вложения

Перейти:  
cron