Начать новую тему Ответить на тему
Статистика раздачи
Размер: 384.06 МБ | Добавлен: 26 мар 2019, 18:51 | Скачали: 0
Сидеров: 0  [0 байт/сек]    Личеров: 0  [0 байт/сек]
Пред. тема | След. тема 

Автор
Сообщение

СообщениеДобавлено: 26 мар 2019, 18:51 

Ответить с цитатой 

Baby Miss Julia / Room of Gardenia
Жанр: Rock, Pop
Носитель: CD
Страна-производитель диска (релиза): Denmark
Год издания: 1995
Издатель (лейбл): CMC Records
Номер по каталогу: 24146-2
Страна исполнителя (группы): Denmark
Аудиокодек: FLAC (*.flac)
Тип рипа: tracks+.cue
Битрейт аудио: lossless
Продолжительность: 00:42:24
Источник (релизер): свой диск
Наличие сканов в содержимом раздачи: да
Треклист:
01. November (4:11)
02. Room of Gardenia (4:10)
03. Dreamer (3:58)
04. Set Me Aflame (3:25)
05. Waiting for the Words (4:33)
06. No Nothing (3:44)
07. I Miss You (5:35)
08. Silent Child (4:13)
09. If (3:57)
10. Travelling Man (4:40)
---------------------------------------------------------------------
Отлично записанный и явно недооценённый альбом из 90-х !
---------------------------------------------------------------------
Код:
Exact Audio Copy V1.1 from 23. June 2015
EAC extraction logfile from 16. March 2016, 12:00
Baby Miss Julia / Room of Gardenia
Used drive  : ATAPI   iHAS120   X   Adapter: 1  ID: 0
Read mode               : Secure
Utilize accurate stream : Yes
Defeat audio cache      : Yes
Make use of C2 pointers : No
Read offset correction                      : 48
Overread into Lead-In and Lead-Out          : No
Fill up missing offset samples with silence : Yes
Delete leading and trailing silent blocks   : No
Null samples used in CRC calculations       : Yes
Used interface                              : Native Win32 interface for Win NT & 2000
Gap handling                                : Appended to previous track
Used output format              : User Defined Encoder
Selected bitrate                : 128 kBit/s
Quality                         : High
Add ID3 tag                     : No
Command line compressor         : C:\Program Files (x86)\Exact Audio Copy\Flac\flac.exe
Additional command line options : -8 -V -T "ARTIST=%artist%" -T "TITLE=%title%" -T "ALBUM=%albumtitle%" -T "DATE=%year%" -T "TRACKNUMBER=%tracknr%" -T "TOTALTRACKS=%numtracks%" -T "GENRE=%genre%" -T "ALBUMARTIST=%albumartist%" -T "ALBUM ARTIST=%albumartist%" -T "COMMENT=EAC Secure Mode, Test & Copy, AccurateRip, FLAC -8" %source%
TOC of the extracted CD
     Track |   Start  |  Length  | Start sector | End sector
    ---------------------------------------------------------
        1  |  0:00.00 |  4:11.15 |         0    |    18839
        2  |  4:11.15 |  4:09.40 |     18840    |    37554
        3  |  8:20.55 |  3:58.20 |     37555    |    55424
        4  | 12:19.00 |  3:25.07 |     55425    |    70806
        5  | 15:44.07 |  4:33.35 |     70807    |    91316
        6  | 20:17.42 |  3:43.63 |     91317    |   108104
        7  | 24:01.30 |  5:35.10 |    108105    |   133239
        8  | 29:36.40 |  4:13.20 |    133240    |   152234
        9  | 33:49.60 |  3:57.02 |    152235    |   170011
       10  | 37:46.62 |  4:40.35 |    170012    |   191046
Track  1
     Filename D:\Room of Gardenia\01 - November.wav
     Pre-gap length  0:00:02.00
     Peak level 98.3 %
     Extraction speed 2.3 X
     Track quality 100.0 %
     Test CRC E7124FB8
     Copy CRC E7124FB8
     Accurately ripped (confidence 1)  [8FAA35CC]  (AR v1)
     Copy OK
Track  2
     Filename D:\Room of Gardenia\02 - Room of Gardenia.wav
     Peak level 98.6 %
     Extraction speed 2.6 X
     Track quality 100.0 %
     Test CRC B7752AB9
     Copy CRC B7752AB9
     Accurately ripped (confidence 1)  [8D0A086B]  (AR v1)
     Copy OK
Track  3
     Filename D:\Room of Gardenia\03 - Dreamer.wav
     Peak level 100.0 %
     Extraction speed 2.8 X
     Track quality 100.0 %
     Test CRC 24A46DBD
     Copy CRC 24A46DBD
     Accurately ripped (confidence 1)  [DC12DD58]  (AR v1)
     Copy OK
Track  4
     Filename D:\Room of Gardenia\04 - Set Me Aflame.wav
     Peak level 98.8 %
     Extraction speed 2.9 X
     Track quality 100.0 %
     Test CRC 2EE049A2
     Copy CRC 2EE049A2
     Accurately ripped (confidence 1)  [164F29FA]  (AR v2)
     Copy OK
Track  5
     Filename D:\Room of Gardenia\05 - Waiting for the Words.wav
     Pre-gap length  0:00:01.65
     Peak level 98.8 %
     Extraction speed 3.3 X
     Track quality 100.0 %
     Test CRC 6E06C0A4
     Copy CRC 6E06C0A4
     Accurately ripped (confidence 1)  [1AF6CC9D]  (AR v2)
     Copy OK
Track  6
     Filename D:\Room of Gardenia\06 - No Nothing.wav
     Pre-gap length  0:00:01.35
     Peak level 98.8 %
     Extraction speed 3.4 X
     Track quality 100.0 %
     Test CRC D6F4B05A
     Copy CRC D6F4B05A
     Accurately ripped (confidence 1)  [297507D0]  (AR v2)
     Copy OK
Track  7
     Filename D:\Room of Gardenia\07 - I Miss You.wav
     Peak level 98.5 %
     Extraction speed 3.7 X
     Track quality 100.0 %
     Test CRC D940EFF1
     Copy CRC D940EFF1
     Accurately ripped (confidence 1)  [D0D2AA3A]  (AR v2)
     Copy OK
Track  8
     Filename D:\Room of Gardenia\08 - Silent Child.wav
     Pre-gap length  0:00:01.10
     Peak level 98.8 %
     Extraction speed 3.4 X
     Track quality 99.9 %
     Test CRC EE5E2242
     Copy CRC EE5E2242
     Accurately ripped (confidence 1)  [395F0FFC]  (AR v1)
     Copy OK
Track  9
     Filename D:\Room of Gardenia\09 - If.wav
     Pre-gap length  0:00:02.40
     Peak level 98.8 %
     Extraction speed 3.5 X
     Track quality 99.9 %
     Test CRC 56ADCDA9
     Copy CRC 56ADCDA9
     Accurately ripped (confidence 1)  [D24BA0F0]  (AR v1)
     Copy OK
Track 10
     Filename D:\Room of Gardenia\10 - Travelling Man.wav
     Pre-gap length  0:00:02.22
     Peak level 97.7 %
     Extraction speed 4.1 X
     Track quality 100.0 %
     Test CRC 9B5AD8E3
     Copy CRC 9B5AD8E3
     Accurately ripped (confidence 1)  [A212D56C]  (AR v1)
     Copy OK
All tracks accurately ripped
No errors occurred
End of status report
---- CUETools DB Plugin V2.1.6
[CTDB TOCID: GXGEfmpqhKF6hU0Q0CXNd5T0Qis-] disk not present in database
Submit result: GXGEfmpqhKF6hU0Q0CXNd5T0Qis- has been uploaded
==== Log checksum 0CA9467DC4D47D977FF7EE5FC63188F595B2AEAA41721F9AAD760BB489FE551B ====
Код:
REM GENRE "Rock, Pop"
REM DATE 1995
REM DISCID 7A09F30A
REM COMMENT "ExactAudioCopy v1.1"
PERFORMER "Baby Miss Julia"
TITLE "Room of Gardenia"
FILE "01 - November.wav" WAVE
  TRACK 01 AUDIO
    TITLE "November"
    PERFORMER "Baby Miss Julia"
    INDEX 01 00:00:00
FILE "02 - Room of Gardenia.wav" WAVE
  TRACK 02 AUDIO
    TITLE "Room of Gardenia"
    PERFORMER "Baby Miss Julia"
    INDEX 01 00:00:00
FILE "03 - Dreamer.wav" WAVE
  TRACK 03 AUDIO
    TITLE "Dreamer"
    PERFORMER "Baby Miss Julia"
    INDEX 01 00:00:00
FILE "04 - Set Me Aflame.wav" WAVE
  TRACK 04 AUDIO
    TITLE "Set Me Aflame"
    PERFORMER "Baby Miss Julia"
    INDEX 01 00:00:00
  TRACK 05 AUDIO
    TITLE "Waiting for the Words"
    PERFORMER "Baby Miss Julia"
    INDEX 00 03:23:17
FILE "05 - Waiting for the Words.wav" WAVE
    INDEX 01 00:00:00
  TRACK 06 AUDIO
    TITLE "No Nothing"
    PERFORMER "Baby Miss Julia"
    INDEX 00 04:32:00
FILE "06 - No Nothing.wav" WAVE
    INDEX 01 00:00:00
FILE "07 - I Miss You.wav" WAVE
  TRACK 07 AUDIO
    TITLE "I Miss You"
    PERFORMER "Baby Miss Julia"
    INDEX 01 00:00:00
  TRACK 08 AUDIO
    TITLE "Silent Child"
    PERFORMER "Baby Miss Julia"
    INDEX 00 05:34:00
FILE "08 - Silent Child.wav" WAVE
    INDEX 01 00:00:00
  TRACK 09 AUDIO
    TITLE "If"
    PERFORMER "Baby Miss Julia"
    INDEX 00 04:10:55
FILE "09 - If.wav" WAVE
    INDEX 01 00:00:00
  TRACK 10 AUDIO
    TITLE "Travelling Man"
    PERFORMER "Baby Miss Julia"
    INDEX 00 03:54:55
FILE "10 - Travelling Man.wav" WAVE
    INDEX 01 00:00:00
Producer:
Baby Miss Julia
Peter Iversen
Vocals, Backing Vocals:
Louise Ellerbæk
Acoustic Guitar:
Jeff Pevar
Christer Båge
Peter Iversen
Michael Kolster
Jesper Hjarne Olsen
Electric Guitar:
Christer Båge
Henrik Skriver
Jeff Pevar
Peter Iversen
Bass:
Jesper Hjarne Olsen
Kim Eskesen
Drums:
Lars Viberg
Keyboards:
Peter Iversen
Organ (Hammond):
Dominique Gale
Peter Iversen
Lyrics By:
Henrik Volf (tracks: 7)
Jesper Hjarne Olsen (tracks: 1, 2)
Ole Lillelund (tracks: 3 to 6, 8 to 10)
Music By:
Henrik Volf (tracks: 7)
Jesper Hjarne Olsen (tracks: 1 to 6, 8 to 10)
Louise Ellerbæk (tracks: 1 to 6, 8 to 10)
Mixed By:
Peter Iversen
Правила, инструкции, FAQ!!!
Торрент  Добавлен [26 мар 2019, 18:51] Скачать торрент Магнет ссылка
Скачать торрент
[ Размер 5.26 КБ / Просмотров 4 ]

Статус
Проверен 
 
Размер  384.06 МБ
Приватный: Нет (DHT включён)
.torrent скачан  0
 


     Отправить личное сообщение
   
Страница 1 из 1
Показать сообщения за:  Поле сортировки  
Начать новую тему Ответить на тему


Сейчас этот форум просматривают: нет зарегистрированных пользователей и гости: 1


Вы не можете начинать темы
Вы не можете отвечать на сообщения
Вы не можете редактировать свои сообщения
Вы не можете удалять свои сообщения
Вы не можете добавлять вложения

Перейти:  
cron