Начать новую тему Ответить на тему
Статистика раздачи
Размер: 156.22 МБ | Добавлен: 26 мар 2019, 20:16 | Скачали: 0
Сидеров: 1  [0 байт/сек]    Личеров: 0  [0 байт/сек]
Пред. тема | След. тема 

Автор
Сообщение

СообщениеДобавлено: 26 мар 2019, 20:16 

Ответить с цитатой 

Alanis Morissette - Everything (Single)
Жанр: Rock/Pop
Год выпуска диска: 2004
Производитель диска: ©℗2004 Maverick Recording Company. Manufactured and distributed by Warner Music Canada Co.
Аудио кодек: FLAC
Тип рипа: tracks+.cue
Битрейт аудио: lossless
Продолжительность: 13:23
Трэклист:
Код:
01. Everything (Radio Edit)          3:33
02. So Unsexy (Vancouver Sessions)   5:06
03. Everything (Vancouver Sessions)  4:44
Доп. информация: На диске также имеется видеоклип на композицию "Everything" и программная оболочка для проигрывания всего этого хозяйства. Все дополнительные файлы с диска сложены в папочку "CD root (additional files)".
Жанр: Rock/Pop
Продолжительность: 3мин 28сек
Формат: MOV
Видео кодек: Sorenson Media Video 3 (Apple QuickTime 5)
Аудио кодек: ima4
Видео: 400x260 (1.538:1), SVQ3 Sorenson Video 3 ~1670 Кбит/сек, ~12,5 кадров/сек
Аудио: 22,05 КГц 16 бит,ima4 ADPCM, 176,4 Кбит/сек, 2 канала
Скриншоты:
Код:
Отчёт EAC об извлечении, выполненном 9. февраля 2009, 21:31 для диска:
Alanis Morissette / Everything (Single)
Дисковод: HL-DT-STDVDRAM GSA-4163B   Adapter: 3  ID: 0
Режим чтения: Достоверный (C2: нет, Точный поток: да, Отключение кэша: да)
Коррекция смещения при чтении: 667
Способность читать области Lead-in и Lead-out : Нет
Выходной формат: C:\Program Files\Exact Audio Copy\FLAC\FLAC.EXE   (Пользовательский кодировщик)
                     Дополнительные параметры: -8 -V -T "ARTIST=%a" -T "TITLE=%t" -T "ALBUM=%g" -T "DATE=%y" -T "TRACKNUMBER=%n" -T "GENRE=%m" -T "COMMENT=EAC FLAC -8" %s
Другие параметры:
    Заполнение пропущенных сэмплов тишиной : Да
    Удаление блоков с тишиной в начале и конце : Нет
    Установленный внешний ASPI-интерфейс
Трек  1
     Имя файла M:\M\Alanis Morissette\Alanis Morissette-Everything (Single)-2004\01. Everything (Radio Edit).wav
     Длина предзазора  0:00:02.00
     Пиковый уровень 99.8 %
     Качество трека 99.9 %
     CRC теста 8727D427
     CRC копии 8727D427
     Копирование... OK
Трек  2
     Имя файла M:\M\Alanis Morissette\Alanis Morissette-Everything (Single)-2004\02. So Unsexy (Vancouver Sessions).wav
     Длина предзазора  0:00:02.07
     Пиковый уровень 96.5 %
     Качество трека 100.0 %
     CRC теста 9AB341A6
     CRC копии 9AB341A6
     Копирование... OK
Трек  3
     Имя файла M:\M\Alanis Morissette\Alanis Morissette-Everything (Single)-2004\03. Everything (Vancouver Sessions).wav
     Длина предзазора  0:00:01.20
     Пиковый уровень 96.5 %
     Качество трека 100.0 %
     CRC теста EE834F87
     CRC копии EE834F87
     Копирование... OK
Ошибок не произошло
Конец отчёта
Track Ripping Status  [Disc ID: 000299b1-26060404]
_______________________
Disc not present in AccurateRip database.
Правила, инструкции, FAQ!!!
Торрент  Добавлен [26 мар 2019, 20:16] Скачать торрент Магнет ссылка
Скачать торрент
[ Размер 30.6 КБ / Просмотров 1 ]

Статус
Проверен 
 
Размер  156.22 МБ
Приватный: Нет (DHT включён)
.torrent скачан  0
 


     Отправить личное сообщение
   
Страница 1 из 1
Показать сообщения за:  Поле сортировки  
Начать новую тему Ответить на тему


Сейчас этот форум просматривают: нет зарегистрированных пользователей и гости: 0


Вы не можете начинать темы
Вы не можете отвечать на сообщения
Вы не можете редактировать свои сообщения
Вы не можете удалять свои сообщения
Вы не можете добавлять вложения

Перейти:  
cron