Начать новую тему Ответить на тему
Статистика раздачи
Размер: 313.34 МБ | Добавлен: 26 мар 2019, 19:49 | Скачали: 1
Сидеров: 2  [0 байт/сек]    Личеров: 0  [0 байт/сек]
Пред. тема | След. тема 

Автор
Сообщение

СообщениеДобавлено: 26 мар 2019, 19:49 

Ответить с цитатой 

Peter Cetera (ex. Chicago) - You're The Inspiration: A Collection
Жанр: Rock
Год выпуска диска: 1997
Производитель диска: Germany
Аудио кодек: APE
Тип рипа: image+.cue
Битрейт аудио: lossless
Продолжительность: 49:46
Трэклист:
01. If You Leave Me Now (New Version)
02. Next Time I Fall, The (With Amy Grant)
03. You're the Inspiration (Remix) (Ft. Az Yet)
04. Do You Love Me That Much
05. After All (With Cher)
06. (I Wanna Take) Forever Tonight (With Crystal Bernard)
07. Baby What a Big Surprise (New Version)
08. I Wasn't the One (Who Said Goodbye) (With Agnetha Faltskog)
09. Feels Like Heaven (With Chaka Khan)
10. She Doesn't Need Me Anymore
11. S.O.S. (With Ronna Reyes)
12. You're the Inspiration (New Version) - (remix)
AUDIOCHECKER v2.0 beta (build 457) - by Dester - opdester@freemail.hu
~~~~~~~~~~~~~~~~~~~~~~~~~~~~~~~~~~
-----------------------------------------------------------
Started at: ïÿòíèöà, 26. 06. 2009. - 7:51.41
1 file found
1 -===- C:\01 Rock\0001 Ëó÷øèå\Peter Cetera\1997 - You are The Inspiration A Compilation\CDImage.ape
Extracted successfully
Conclusion: this track is CDDA with probability 100%
Tempfile successfully deleted.
Finished at: ïÿòíèöà, 26. 06. 2009. - 8:03.52 (operation time: 0:12.11)
Код:
PERFORMER "Peter Cetera"
TITLE "You're The Inspiration: A Collection"
FILE "CDImage.wav" WAVE
  TRACK 01 AUDIO
    TITLE "If You Leave Me Now (New Version)"
    PERFORMER "Peter Cetera"
    INDEX 00 00:00:00
    INDEX 01 00:00:32
  TRACK 02 AUDIO
    TITLE "Next Time I Fall, The (With Amy Grant)"
    PERFORMER "Peter Cetera"
    INDEX 00 04:21:06
    INDEX 01 04:23:05
  TRACK 03 AUDIO
    TITLE "You're the Inspiration (Remix) (Ft. Az Yet)"
    PERFORMER "Peter Cetera"
    INDEX 00 08:01:31
    INDEX 01 08:03:30
  TRACK 04 AUDIO
    TITLE "Do You Love Me That Much"
    PERFORMER "Peter Cetera"
    INDEX 00 12:14:06
    INDEX 01 12:16:05
  TRACK 05 AUDIO
    TITLE "After All (With Cher)"
    PERFORMER "Peter Cetera"
    INDEX 00 15:54:04
    INDEX 01 15:56:05
  TRACK 06 AUDIO
    TITLE "(I Wanna Take) Forever Tonight (With Crystal Bernard)"
    PERFORMER "Peter Cetera"
    INDEX 00 19:58:30
    INDEX 01 20:00:30
  TRACK 07 AUDIO
    TITLE "Baby What a Big Surprise (New Version)"
    PERFORMER "Peter Cetera"
    INDEX 00 24:34:61
    INDEX 01 24:37:27
  TRACK 08 AUDIO
    TITLE "I Wasn't the One (Who Said Goodbye) (With Agnetha Faltskog)"
    PERFORMER "Peter Cetera"
    INDEX 00 28:07:03
    INDEX 01 28:09:05
  TRACK 09 AUDIO
    TITLE "Feels Like Heaven (With Chaka Khan)"
    PERFORMER "Peter Cetera"
    INDEX 00 32:11:08
    INDEX 01 32:13:07
  TRACK 10 AUDIO
    TITLE "She Doesn't Need Me Anymore"
    PERFORMER "Peter Cetera"
    INDEX 00 36:59:26
    INDEX 01 37:01:30
  TRACK 11 AUDIO
    TITLE "S.O.S. (With Ronna Reyes)"
    PERFORMER "Peter Cetera"
    INDEX 00 41:30:15
    INDEX 01 41:32:37
  TRACK 12 AUDIO
    TITLE "You're the Inspiration (New Version)-(remix)"
    PERFORMER "Peter Cetera"
    INDEX 00 45:35:06
    INDEX 01 45:37:05
Правила, инструкции, FAQ!!!
Торрент  Добавлен [26 мар 2019, 19:49] Скачать торрент Магнет ссылка
Скачать торрент
[ Размер 12.87 КБ / Просмотров 8 ]

Статус
Проверен 
 
Размер  313.34 МБ
Приватный: Нет (DHT включён)
.torrent скачан  1
 


     Отправить личное сообщение
   
Страница 1 из 1
Показать сообщения за:  Поле сортировки  
Начать новую тему Ответить на тему


Сейчас этот форум просматривают: нет зарегистрированных пользователей и гости: 0


Вы не можете начинать темы
Вы не можете отвечать на сообщения
Вы не можете редактировать свои сообщения
Вы не можете удалять свои сообщения
Вы не можете добавлять вложения

Перейти:  
cron