Начать новую тему Ответить на тему
Статистика раздачи
Размер: 273.61 МБ | Добавлен: 26 мар 2019, 21:08 | Скачали: 0
Сидеров: 0  [0 байт/сек]    Личеров: 0  [0 байт/сек]
Пред. тема | След. тема 

Автор
Сообщение

СообщениеДобавлено: 26 мар 2019, 21:08 

Ответить с цитатой 

Paul Carrack / Suburban Voodoo - 1982
Жанр: Rock
Страна-производитель диска: U.K.
Год издания диска: 2006
Издатель (лейбл): Evangeline Rec.
Номер по каталогу: ACA 8107
Аудио кодек: FLAC (*.flac)
Тип рипа: image+.cue
Битрейт аудио: lossless
Продолжительность: 38 минут 35 секунд
Источник (релизер): собственный рип
Наличие сканов в содержимом раздачи: да
Треклист:
01. Lesson In Love
02. Always Better With You
03. I Need You
04. I'm In Love
05. Don't Give My Heart A Break
06. A Little Unkind
07. Out Of Touch
08. What A Way To Go
09. So Right, So Wrong
10. From Now On
11. Call Me Tonight
12. I Found Love
По моему мнению лучший альбом из обширной сольной дискографии вокалиста Ace и Mike + The Mechanics.
Код:
Exact Audio Copy V0.99 prebeta 5 from 4. May 2009
Отчёт EAC об извлечении, выполненном 17. ноября 2010, 19:57
Paul Carrack / Suburban Voodoo
Дисковод: Optiarc DVD RW AD-5590A   Adapter: 3  ID: 0
Режим чтения                 : Достоверность
Использование точного потока : Да
Отключение кэша аудио        : Да
Использование указателей C2  : Нет
Коррекция смещения при чтении                     : 48
Способность читать области Lead-in и Lead-out     : Нет
Заполнение пропущенных сэмплов тишиной            : Да
Удаление блоков с тишиной в начале и конце        : Нет
При вычислениях CRC использовались нулевые сэмплы : Да
Интерфейс                                         : Установленный внешний ASPI-интерфейс
Выходной формат          : Пользовательский кодировщик
Выбранный битрейт        : 320 kBit/s
Качество                 : Высокий
Добавление ID3-тэга      : Нет
Утилита сжатия           : D:\Архив программ и драйверов\Мультимедийные программы\EAC & lame\flac.exe
Дополнительные параметры : -8 -V %s
TOC извлечённого CD
     Трек |   Старт  | Длительность | Начальный сектор | Конечный сектор
    ---------------------------------------------------------------------
       1  |  0:00.00 |    2:59.07   |           0      |      13431
       2  |  2:59.07 |    3:31.23   |       13432      |      29279
       3  |  6:30.30 |    2:48.22   |       29280      |      41901
       4  |  9:18.52 |    3:17.00   |       41902      |      56676
       5  | 12:35.52 |    3:21.58   |       56677      |      71809
       6  | 15:57.35 |    3:03.47   |       71810      |      85581
       7  | 19:01.07 |    3:07.25   |       85582      |      99631
       8  | 22:08.32 |    2:50.65   |       99632      |     112446
       9  | 24:59.22 |    3:30.70   |      112447      |     128266
      10  | 28:30.17 |    3:22.13   |      128267      |     143429
      11  | 31:52.30 |    3:04.65   |      143430      |     157294
      12  | 34:57.20 |    3:38.45   |      157295      |     173689
Характеристики диапазона извлечения и сообщения об ошибках
Выбранный диапазон
     Имя файла G:\User Manual 3Q 2.5\раздачи\Paul Carrack - Suburban Voodoo 1982\Paul Carrack - Suburban Voodoo.wav
     Пиковый уровень 100.0 %
     Качество диапазона 100.0 %
     CRC копии EB7825BD
     Копирование... OK
Ошибок не произошло
Конец отчёта
Paul Carrack - Groove Approved - 1989, FLAC (image+.cue), lossless
Paul Carrack - Twenty-One Good Reasons - 1994, FLAC (image+.cue), lossless
Paul Carrack - Beautiful World - 1997, APE (image+.cue), lossless
Paul Carrack - Satisfy My Soul - 2000, APE (image+.cue), lossless
Paul Carrack - Still Groovin - 2002, APE (image+.cue), lossless
Paul Carrack - The Story So Far ... (Greatest Hits) - 2006, FLAC (image+.cue), lossless
Paul Carrack - Old, New, Borrowed And Blue - 2007, APE (image+.cue), lossless
Paul Carrack - I Know That Name - 2009, APE (image+.cue), lossless
Правила, инструкции, FAQ!!!
Торрент  Добавлен [26 мар 2019, 21:08] Скачать торрент Магнет ссылка
Скачать торрент
[ Размер 11.66 КБ / Просмотров 2 ]

Статус
Проверен 
 
Размер  273.61 МБ
Приватный: Нет (DHT включён)
.torrent скачан  0
 


     Отправить личное сообщение
   
Страница 1 из 1
Показать сообщения за:  Поле сортировки  
Начать новую тему Ответить на тему


Сейчас этот форум просматривают: нет зарегистрированных пользователей и гости: 0


Вы не можете начинать темы
Вы не можете отвечать на сообщения
Вы не можете редактировать свои сообщения
Вы не можете удалять свои сообщения
Вы не можете добавлять вложения

Перейти:  
cron