Начать новую тему Ответить на тему
Статистика раздачи
Размер: 324 МБ | Добавлен: 26 мар 2019, 21:08 | Скачали: 0
Сидеров: 4  [0 байт/сек]    Личеров: 0  [0 байт/сек]
Пред. тема | След. тема 

Автор
Сообщение

СообщениеДобавлено: 26 мар 2019, 21:08 

Ответить с цитатой 

Paul Carrack / Blue Views (1995)
Жанр: Rock
Страна-производитель диска: U.S.A.
Год издания диска: 1997
Издатель (лейбл): Ark21
Номер по каталогу: 61868 10007 2 3
Страна: U.S.A.
Аудио кодек: FLAC (*.flac)
Тип рипа: image+.cue
Битрейт аудио: lossless
Продолжительность: 48:23
Источник (релизер): собственный рип
Наличие сканов в содержимом раздачи: да
Треклист:
1. No Easy Way Out
2. For Once In Our Lives
3. Somewhere In Your Heart
4. Eyes Of Blue
5. Always Have Always Will
6. Nothing More Than A Memory
7. Oh Oh Oh My My My
8. Don't Walk Over Me
9. Only A Breath Away
10. Love Will Keep Us Alive
11. How Long
Код:
Exact Audio Copy V0.99 prebeta 5 from 4. May 2009
Отчёт EAC об извлечении, выполненном 14. февраля 2011, 19:46
Paul Carrack / Blue Views
Дисковод: Optiarc DVD RW AD-5590A   Adapter: 3  ID: 0
Режим чтения                 : Достоверность
Использование точного потока : Да
Отключение кэша аудио        : Да
Использование указателей C2  : Нет
Коррекция смещения при чтении                     : 48
Способность читать области Lead-in и Lead-out     : Нет
Заполнение пропущенных сэмплов тишиной            : Да
Удаление блоков с тишиной в начале и конце        : Нет
При вычислениях CRC использовались нулевые сэмплы : Да
Интерфейс                                         : Установленный внешний ASPI-интерфейс
Выходной формат          : Пользовательский кодировщик
Выбранный битрейт        : 320 kBit/s
Качество                 : Высокий
Добавление ID3-тэга      : Нет
Утилита сжатия           : C:\Program Files\EAC\flac\flac.exe
Дополнительные параметры : -8 -V %s
TOC извлечённого CD
     Трек |   Старт  | Длительность | Начальный сектор | Конечный сектор
    ---------------------------------------------------------------------
       1  |  0:00.32 |    5:14.33   |          32      |      23614
       2  |  5:14.65 |    4:07.05   |       23615      |      42144
       3  |  9:21.70 |    3:42.10   |       42145      |      58804
       4  | 13:04.05 |    3:59.45   |       58805      |      76774
       5  | 17:03.50 |    4:39.65   |       76775      |      97764
       6  | 21:43.40 |    5:01.30   |       97765      |     120369
       7  | 26:44.70 |    4:12.62   |      120370      |     139331
       8  | 30:57.57 |    4:38.13   |      139332      |     160194
       9  | 35:35.70 |    4:21.25   |      160195      |     179794
      10  | 39:57.20 |    4:35.37   |      179795      |     200456
      11  | 44:32.57 |    3:51.15   |      200457      |     217796
Характеристики диапазона извлечения и сообщения об ошибках
Выбранный диапазон
     Имя файла G:\User Manual 3Q 2.5\My Music\Paul Carrack - Blue Views 1996\Paul Carrack - Blue Views.wav
     Пиковый уровень 100.0 %
     Качество диапазона 100.0 %
     CRC копии 8814C32D
     Копирование... OK
Ошибок не произошло
AccurateRip: сводка
Трек  1  точное извлечение (доверие 5)  [C1083E8B]
Трек  2  точное извлечение (доверие 5)  [B72361EC]
Трек  3  точное извлечение (доверие 5)  [A691214B]
Трек  4  точное извлечение (доверие 7)  [0DDFD0AD]
Трек  5  точное извлечение (доверие 5)  [E813599D]
Трек  6  точное извлечение (доверие 5)  [662D0CF3]
Трек  7  точное извлечение (доверие 5)  [80B6A60D]
Трек  8  точное извлечение (доверие 5)  [D3A820BA]
Трек  9  точное извлечение (доверие 4)  [15895067]
Трек 10  точное извлечение (доверие 5)  [10C1096F]
Трек 11  точное извлечение (доверие 5)  [01761267]
Все треки извлечены точно
Конец отчёта
Paul Carrack - Suburban Voodoo - 1982, FLAC (image+.cue) lossless
Paul Carrack - One Good Reason - 1987, FLAC (image+.cue) lossless
Paul Carrack - Groove Approved - 1989, FLAC (image+.cue), lossless
Paul Carrack - Twenty-One Good Reasons - 1994, FLAC (image+.cue), lossless
Paul Carrack - Beautiful World - 1997, APE (image+.cue), lossless
Paul Carrack - Satisfy My Soul - 2000, APE (image+.cue), lossless
Paul Carrack - Still Groovin - 2002, APE (image+.cue), lossless
Paul Carrack - The Story So Far ... (Greatest Hits) - 2006, FLAC (image+.cue), lossless
Paul Carrack - Old, New, Borrowed And Blue - 2007, APE (image+.cue), lossless
Paul Carrack - I Know That Name - 2009, APE (image+.cue), lossless
Правила, инструкции, FAQ!!!
Торрент  Добавлен [26 мар 2019, 21:08] Скачать торрент Магнет ссылка
Скачать торрент
[ Размер 13.67 КБ / Просмотров 4 ]

Статус
Проверен 
 
Размер  324 МБ
Приватный: Нет (DHT включён)
.torrent скачан  0
 


     Отправить личное сообщение
   
Страница 1 из 1
Показать сообщения за:  Поле сортировки  
Начать новую тему Ответить на тему


Сейчас этот форум просматривают: нет зарегистрированных пользователей и гости: 0


Вы не можете начинать темы
Вы не можете отвечать на сообщения
Вы не можете редактировать свои сообщения
Вы не можете удалять свои сообщения
Вы не можете добавлять вложения

Перейти:  
cron