Начать новую тему Ответить на тему
Статистика раздачи
Размер: 118.35 МБ | Добавлен: 26 мар 2019, 19:26 | Скачали: 0
Сидеров: 1  [0 байт/сек]    Личеров: 0  [0 байт/сек]
Пред. тема | След. тема 

Автор
Сообщение

СообщениеДобавлено: 26 мар 2019, 19:26 

Ответить с цитатой 

Oasis - Falling Down (Single) (2009)
Жанр: Rock
Год выпуска диска: 2009
Производитель диска: UK
Лейбл: Big Brother
Аудио кодек: FLAC
Тип рипа: tracks+.cue
Битрейт аудио: lossless
Продолжительность: 17:30
Трэклист:
01. Falling Down (4:27)
02. Those Swollen Hand Blues (3:20)
03. Falling Down (The Gibb Mix) (5:12)
04. Falling Down (The Prodigy Version) (4:31)
Доп. информация:
«Falling Down» песня британской рок-группы Oasis с седьмой студийной пластинки Dig Out Your Soul. Написана ведущим гитаристом Ноэлом Галлахером, и была выпущена в качестве третьего сингла с альбома 9 марта. На сингле можно услышать невошедший на альбом трэк «Those Swollen Hand Blues», ремикс басиста Твигги Рамиреза из группы Marilyn Manson, а также версию от самих The Prodigy. Ранее песня успела побывать в цепких руках Chemical Brothers, но их ремикс остался незамеченным широкими массами.
Exact Audio Copy V0.99 prebeta 4 from 23. January 2008
EAC extraction logfile from 9. March 2009, 21:36
Oasis / Falling Down
Used drive : LITE-ON DVDRW SHW-160H6S Adapter: 1 ID: 1
Read mode : Secure
Utilize accurate stream : Yes
Defeat audio cache : No
Make use of C2 pointers : Yes
Read offset correction : 6
Overread into Lead-In and Lead-Out : No
Fill up missing offset samples with silence : Yes
Delete leading and trailing silent blocks : No
Null samples used in CRC calculations : Yes
Used interface : Native Win32 interface for Win NT & 2000
Gap handling : Appended to previous track
Used output format : User Defined Encoder
Selected bitrate : 128 kBit/s
Quality : High
Add ID3 tag : No
Command line compressor : C:\Program Files (x86)\FLAC\flac.exe
Additional command line options : -V -8 -T "artist=%a" -T "title=%t" -T "album=%g" -T "date=%y" -T "tracknumber=%n" -T "genre=%m" %s
TOC of the extracted CD
Track | Start | Length | Start sector | End sector
---------------------------------------------------------
1 | 0:00.00 | 4:27.25 | 0 | 20049
2 | 4:27.25 | 3:20.29 | 20050 | 35078
3 | 7:47.54 | 5:12.16 | 35079 | 58494
4 | 12:59.70 | 4:31.49 | 58495 | 78868
Track 1
Filename D:\Oasis - Falling Down - FLAC\Oasis,Falling Down,01 - Falling Down.wav
Pre-gap length 0:00:02.00
Peak level 98.8 %
Track quality 100.0 %
Test CRC 373DC9C8
Copy CRC 373DC9C8
Track not present in AccurateRip database
Copy OK
Track 2
Filename D:\Oasis - Falling Down - FLAC\Oasis,Falling Down,02 - Those Swollen Hand Blues.wav
Pre-gap length 0:00:01.00
Peak level 98.8 %
Track quality 100.0 %
Test CRC 9DADF78F
Copy CRC 9DADF78F
Track not present in AccurateRip database
Copy OK
Track 3
Filename D:\Oasis - Falling Down - FLAC\Oasis,Falling Down,03 - Falling Down (The Gibb Mix).wav
Pre-gap length 0:00:01.09
Peak level 98.9 %
Track quality 100.0 %
Test CRC 311F3DD4
Copy CRC 311F3DD4
Track not present in AccurateRip database
Copy OK
Track 4
Filename D:\Oasis - Falling Down - FLAC\Oasis,Falling Down,04 - Falling Down (The Prodigy Version).wav
Pre-gap length 0:00:01.74
Peak level 98.9 %
Track quality 100.0 %
Test CRC CD6BB243
Copy CRC CD6BB243
Track not present in AccurateRip database
Copy OK
None of the tracks are present in the AccurateRip database
No errors occurred
End of status report
Правила, инструкции, FAQ!!!
Торрент  Добавлен [26 мар 2019, 19:26] Скачать торрент Магнет ссылка
Скачать торрент
[ Размер 19.44 КБ / Просмотров 13 ]

Статус
Проверен 
 
Размер  118.35 МБ
Приватный: Нет (DHT включён)
.torrent скачан  0
 


     Отправить личное сообщение
   
Страница 1 из 1
Показать сообщения за:  Поле сортировки  
Начать новую тему Ответить на тему


Сейчас этот форум просматривают: нет зарегистрированных пользователей и гости: 0


Вы не можете начинать темы
Вы не можете отвечать на сообщения
Вы не можете редактировать свои сообщения
Вы не можете удалять свои сообщения
Вы не можете добавлять вложения

Перейти:  
cron