Начать новую тему Ответить на тему
Статистика раздачи
Размер: 320.59 МБ | Добавлен: 26 мар 2019, 19:55 | Скачали: 0
Сидеров: 1  [0 байт/сек]    Личеров: 0  [0 байт/сек]
Пред. тема | След. тема 

Автор
Сообщение

СообщениеДобавлено: 26 мар 2019, 19:55 

Ответить с цитатой 

KHY Patricia Tapia (женский вокал Mägo de Oz) / Volver a creer
Жанр: Rock/melodic rock/pop
Страна-производитель диска: Испания
Год издания диска: 2010
Издатель (лейбл): Warner Music Spain
Номер по каталогу: 5186594932
Страна: Испания
Аудио кодек: FLAC (*.flac)
Тип рипа: image+.cue
Битрейт аудио: lossless
Продолжительность: 00:44:48
Источник (релизер): Рип мой с фирменного диска
Наличие сканов в содержимом раздачи: да
Треклист:
01.- Mil Momentos
02.- En Mi Locura
03.- Al Otro Lado Del Papel
04.- Nada Sin Tu Piel
05.- En Mi Memoria
06.- Nunca Más
07.- Hoy Como Ayer
08.- Dime
09.- Ni Un Paso Atrás
10.- Áquel Callejón
11.- Promesas Olvidadas
12.- En Silencio
Код:
Exact Audio Copy V0.99 prebeta 5 from 4. May 2009
Отчёт EAC об извлечении, выполненном 19. сентября 2010, 13:19
KHY Patricia Tapia / Volver A Creer
Дисковод: HL-DT-STDVDRAM GSA-T50N   Adapter: 0  ID: 1
Режим чтения                 : Достоверность
Использование точного потока : Да
Отключение кэша аудио        : Да
Использование указателей C2  : Нет
Коррекция смещения при чтении                     : 667
Способность читать области Lead-in и Lead-out     : Нет
Заполнение пропущенных сэмплов тишиной            : Да
Удаление блоков с тишиной в начале и конце        : Нет
При вычислениях CRC использовались нулевые сэмплы : Да
Интерфейс                                         : Встроенный Win32-интерфейс для Win NT/2000
Выходной формат          : Пользовательский кодировщик
Выбранный битрейт        : 1024 kBit/s
Качество                 : Высокий
Добавление ID3-тэга      : Нет
Утилита сжатия           : E:\Program Files\Exact Audio Copy 099.5\Flac\flac.exe
Дополнительные параметры : -8 -V -T "ARTIST=%a" -T "TITLE=%t" -T "ALBUM=%g" -T "DATE=%y" -T "TRACKNUMBER=%n" -T "GENRE=%m" -T "COMMENT=EAC FLAC -8" %s
TOC извлечённого CD
     Трек |   Старт  | Длительность | Начальный сектор | Конечный сектор
    ---------------------------------------------------------------------
       1  |  0:00.00 |    4:39.43   |           0      |      20967
       2  |  4:39.43 |    3:05.06   |       20968      |      34848
       3  |  7:44.49 |    3:59.48   |       34849      |      52821
       4  | 11:44.22 |    3:37.20   |       52822      |      69116
       5  | 15:21.42 |    3:50.68   |       69117      |      86434
       6  | 19:12.35 |    3:47.12   |       86435      |     103471
       7  | 22:59.47 |    3:46.33   |      103472      |     120454
       8  | 26:46.05 |    2:59.01   |      120455      |     133880
       9  | 29:45.06 |    2:59.54   |      133881      |     147359
      10  | 32:44.60 |    4:01.20   |      147360      |     165454
      11  | 36:46.05 |    3:50.18   |      165455      |     182722
      12  | 40:36.23 |    4:11.52   |      182723      |     201599
Характеристики диапазона извлечения и сообщения об ошибках
Выбранный диапазон
     Имя файла E:\KHY\KHY Patricia Tapia - Volver A Creer.wav
     Пиковый уровень 99.5 %
     Качество диапазона 100.0 %
     CRC теста 3A6A4564
     CRC копии 3A6A4564
     Копирование... OK
Ошибок не произошло
Конец отчёта
Вокалистка группы Mägo de Oz. Тут и добавить нечего
Дебютный альбом Патрисии в стиле мелодичного рокопопса на испанском языке. Мне понравился. Диск куплен на концерте группы Mägo de Oz, т.ч. музыканты его продвигают, стало быть и поклонникам группы послушать не грех
PATRICIA TAPIA (Голос)
JAIME DE LA ALDEA (Соло гитара)
MONICA TAPIA (Голос и Ритм гитара)
OSCAR PEREZ (Ударные)
DANIEL FRAILE (Бас гитара)
JUAN GUADAÑO (Клавишные и голос)
Правила, инструкции, FAQ!!!
Торрент  Добавлен [26 мар 2019, 19:55] Скачать торрент Магнет ссылка
Скачать торрент
[ Размер 13.64 КБ / Просмотров 5 ]

Статус
Проверен 
 
Размер  320.59 МБ
Приватный: Нет (DHT включён)
.torrent скачан  0
 


     Отправить личное сообщение
   
Страница 1 из 1
Показать сообщения за:  Поле сортировки  
Начать новую тему Ответить на тему


Сейчас этот форум просматривают: нет зарегистрированных пользователей и гости: 0


Вы не можете начинать темы
Вы не можете отвечать на сообщения
Вы не можете редактировать свои сообщения
Вы не можете удалять свои сообщения
Вы не можете добавлять вложения

Перейти:  
cron