Начать новую тему Ответить на тему
Статистика раздачи
Размер: 335.35 МБ | Добавлен: 26 мар 2019, 21:08 | Скачали: 0
Сидеров: 1  [0 байт/сек]    Личеров: 0  [0 байт/сек]
Пред. тема | След. тема 

Автор
Сообщение

СообщениеДобавлено: 26 мар 2019, 21:08 

Ответить с цитатой 

Little River Band - Get Lucky
Жанр: Rock
Год выпуска диска: 1990
Производитель диска: USA
Аудио кодек: FLAC
Тип рипа: image+.cue
Битрейт аудио: lossless
Продолжительность: 43 мин.
Трэклист:
1. If I Get Lucky (4:14)
2. There's Not Another You (3:50)
3. Second Wind (4:14)
4. Every Time I Turn Around (4:38)
5. I Dream Alone (4:50)
6. Time & Eternity (4:08)
7. Two Emotions (4:29)
8. As Long As I'm Alive (4:36)
9. The One That Got Away (3:56)
10. Listen To Your Heart (4:52)
Доп. информация: Диск от МСЛ-Records MCAD-6369

[/IMG]
Exact Audio Copy V0.99 prebeta 5 from 4. May 2009
Отчёт EAC об извлечении, выполненном 22. марта 2010, 6:50
Little River Band / Get Lucky
Дисковод: Optiarc DVD RW AD-7200S Adapter: 2 ID: 0
Режим чтения : Достоверность
Использование точного потока : Да
Отключение кэша аудио : Да
Использование указателей C2 : Нет
Коррекция смещения при чтении : 48
Способность читать области Lead-in и Lead-out : Нет
Заполнение пропущенных сэмплов тишиной : Да
Удаление блоков с тишиной в начале и конце : Нет
При вычислениях CRC использовались нулевые сэмплы : Да
Интерфейс : Встроенный Win32-интерфейс для Win NT/2000
Выходной формат : Внутренние WAV-операции
Формат сэмплов : 44.100 Гц; 16 бит; стерео
TOC извлечённого CD
Трек | Старт | Длительность | Начальный сектор | Конечный сектор
---------------------------------------------------------------------
1 | 0:00.00 | 4:14.60 | 0 | 19109
2 | 4:14.60 | 3:50.00 | 19110 | 36359
3 | 8:04.60 | 4:14.62 | 36360 | 55471
4 | 12:19.47 | 4:38.08 | 55472 | 76329
5 | 16:57.55 | 4:50.60 | 76330 | 98139
6 | 21:48.40 | 4:08.60 | 98140 | 116799
7 | 25:57.25 | 4:29.27 | 116800 | 137001
8 | 30:26.52 | 4:36.25 | 137002 | 157726
9 | 35:03.02 | 3:56.60 | 157727 | 175486
10 | 38:59.62 | 4:52.30 | 175487 | 197416
Характеристики диапазона извлечения и сообщения об ошибках
Выбранный диапазон
Имя файла E:\МОИ РАЗДАЧИ\Little River Band - Get Lucky 1990\Little River Band - Get Lucky.wav
Пиковый уровень 100.0 %
Качество диапазона 100.0 %
CRC копии 7A25F069
Копирование... OK
Ошибок не произошло
AccurateRip: сводка
Трек 1 точное извлечение (доверие 9) [574741E2]
Трек 2 точное извлечение (доверие 9) [9A9A624D]
Трек 3 точное извлечение (доверие 9) [BAA8AB85]
Трек 4 точное извлечение (доверие 9) [92BE7969]
Трек 5 точное извлечение (доверие 9) [E949EC99]
Трек 6 точное извлечение (доверие 9) [239BAFE0]
Трек 7 точное извлечение (доверие 9) [315A238A]
Трек 8 точное извлечение (доверие 9) [7FDBBCA8]
Трек 9 точное извлечение (доверие 9) [DDBAB1F7]
Трек 10 точное извлечение (доверие 9) [C43AF9C4]
Все треки извлечены точно
Конец отчёта
Правила, инструкции, FAQ!!!
Торрент  Добавлен [26 мар 2019, 21:08] Скачать торрент Магнет ссылка
Скачать торрент
[ Размер 13.87 КБ / Просмотров 9 ]

Статус
Проверен 
 
Размер  335.35 МБ
Приватный: Нет (DHT включён)
.torrent скачан  0
 


     Отправить личное сообщение
   
Страница 1 из 1
Показать сообщения за:  Поле сортировки  
Начать новую тему Ответить на тему


Сейчас этот форум просматривают: нет зарегистрированных пользователей и гости: 0


Вы не можете начинать темы
Вы не можете отвечать на сообщения
Вы не можете редактировать свои сообщения
Вы не можете удалять свои сообщения
Вы не можете добавлять вложения

Перейти:  
cron