Начать новую тему Ответить на тему
Статистика раздачи
Размер: 561.52 МБ | Добавлен: 26 мар 2019, 20:24 | Скачали: 0
Сидеров: 0  [0 байт/сек]    Личеров: 0  [0 байт/сек]
Пред. тема | След. тема 

Автор
Сообщение

СообщениеДобавлено: 26 мар 2019, 20:24 

Ответить с цитатой 

Little River Band / Re-Arranged
Жанр: Rock
Страна-производитель диска: Australia
Год издания диска: 2006
Издатель (лейбл): The Store For Music Ltd
Номер по каталогу: SFMCD079
Страна: Australia
Аудио кодек: FLAC (*.flac)
Тип рипа: tracks+.cue
Битрейт аудио: lossless
Продолжительность: 75:47
Источник (релизер): What
Наличие сканов в содержимом раздачи: да
Треклист:
1. Long Way There
2. Man On Your Mind
3. This Place
4. Take It Easy On Me
5. Happy Anniversary
6. Forever Blue
7. The Other Guy
8. Reminiscing
9. Should I Go
10. We Two / Down On The Border
11. Help Is On Its Way
12. The Night Owls
13. Cool Change
14. Lonesome Loser
15. Lady
Очень неплохой альбом группы.Освежили и осовременили свои хиты,не испортив их при этом!
Код:
EAC extraction logfile from 7. May 2007, 19:45 for CD
Little River Band / Little River Band
Used drive  : BENQ    DVD DD DW1620   Adapter: 3  ID: 1
Read mode   : Secure with NO C2, accurate stream, disable cache
Read offset correction : 618
Overread into Lead-In and Lead-Out : No
Used output format : C:\Program Files\FLAC\flac.exe   (User Defined Encoder)
                     128 kBit/s
                     Additional command line options :  -8 -V -T "ARTIST=%a" -T "TITLE=%t" -T "ALBUM=%g" -T "DATE=%y" -T "TRACKNUMBER=%n" -T "GENRE=%m" -T "COMMENT=EAC Flac 1.7.1 -8" %s
Other options      :
    Fill up missing offset samples with silence : Yes
    Delete leading and trailing silent blocks : No
    Installed external ASPI interface
Track  1
     Filename F:\Music\Little River Band - Rearranged (2006) [FLAC]\01 - Long Way Home.wav
     Pre-gap length  0:00:02.00
     Peak level 98.9 %
     Track quality 100.0 %
     Test CRC 7ABF5A87
     Copy CRC 7ABF5A87
     Copy OK
Track  2
     Filename F:\Music\Little River Band - Rearranged (2006) [FLAC]\02 - Man On Your Mind.wav
     Pre-gap length  0:00:00.92
     Peak level 98.9 %
     Track quality 100.0 %
     Test CRC 49E900E0
     Copy CRC 49E900E0
     Copy OK
Track  3
     Filename F:\Music\Little River Band - Rearranged (2006) [FLAC]\03 - This Place.wav
     Pre-gap length  0:00:01.54
     Peak level 98.9 %
     Track quality 100.0 %
     Test CRC 427321BF
     Copy CRC 427321BF
     Copy OK
Track  4
     Filename F:\Music\Little River Band - Rearranged (2006) [FLAC]\04 - Take It Easy On Me.wav
     Pre-gap length  0:00:01.58
     Peak level 98.9 %
     Track quality 100.0 %
     Test CRC 10AE6CF7
     Copy CRC 10AE6CF7
     Copy OK
Track  5
     Filename F:\Music\Little River Band - Rearranged (2006) [FLAC]\05 - Happy Anniversary.wav
     Pre-gap length  0:00:01.05
     Peak level 98.9 %
     Track quality 100.0 %
     Test CRC 9F1959A3
     Copy CRC 9F1959A3
     Copy OK
Track  6
     Filename F:\Music\Little River Band - Rearranged (2006) [FLAC]\06 - Forever Blue.wav
     Pre-gap length  0:00:01.17
     Peak level 98.9 %
     Track quality 99.9 %
     Test CRC B5B52EA7
     Copy CRC B5B52EA7
     Copy OK
Track  7
     Filename F:\Music\Little River Band - Rearranged (2006) [FLAC]\07 - The Other Guy.wav
     Pre-gap length  0:00:01.24
     Peak level 98.9 %
     Track quality 100.0 %
     Test CRC 61153A41
     Copy CRC 61153A41
     Copy OK
Track  8
     Filename F:\Music\Little River Band - Rearranged (2006) [FLAC]\08 - Reminiscing.wav
     Pre-gap length  0:00:00.81
     Peak level 98.9 %
     Track quality 100.0 %
     Test CRC AF9C000F
     Copy CRC AF9C000F
     Copy OK
Track  9
     Filename F:\Music\Little River Band - Rearranged (2006) [FLAC]\09 - Should I Go.wav
     Pre-gap length  0:00:01.28
     Peak level 98.9 %
     Track quality 100.0 %
     Test CRC 20A99C1B
     Copy CRC 20A99C1B
     Copy OK
Track 10
     Filename F:\Music\Little River Band - Rearranged (2006) [FLAC]\10 - We Two-Down On The Border.wav
     Pre-gap length  0:00:01.46
     Peak level 98.9 %
     Track quality 99.9 %
     Test CRC EA01B325
     Copy CRC EA01B325
     Copy OK
Track 11
     Filename F:\Music\Little River Band - Rearranged (2006) [FLAC]\11 - Help Is On It's Way.wav
     Pre-gap length  0:00:01.13
     Peak level 98.8 %
     Track quality 100.0 %
     Test CRC B82480D2
     Copy CRC B82480D2
     Copy OK
Track 12
     Filename F:\Music\Little River Band - Rearranged (2006) [FLAC]\12 - The Night Owls.wav
     Pre-gap length  0:00:01.09
     Peak level 98.9 %
     Track quality 100.0 %
     Test CRC 39BBC0AE
     Copy CRC 39BBC0AE
     Copy OK
Track 13
     Filename F:\Music\Little River Band - Rearranged (2006) [FLAC]\13 - Cool Change.wav
     Pre-gap length  0:00:01.77
     Peak level 98.8 %
     Track quality 100.0 %
     Test CRC DAEB7B96
     Copy CRC DAEB7B96
     Copy OK
Track 14
     Filename F:\Music\Little River Band - Rearranged (2006) [FLAC]\14 - Lonesome Loser.wav
     Pre-gap length  0:00:02.05
     Peak level 98.9 %
     Track quality 100.0 %
     Test CRC DF40EBA0
     Copy CRC DF40EBA0
     Copy OK
Track 15
     Filename F:\Music\Little River Band - Rearranged (2006) [FLAC]\15 - Lady.wav
     Pre-gap length  0:00:02.32
     Peak level 98.9 %
     Track quality 100.0 %
     Test CRC AE9E79E5
     Copy CRC AE9E79E5
     Copy OK
No errors occured
End of status report
Код:
REM GENRE Rock
REM DATE 2006
REM DISCID CF11AD0F
REM COMMENT "ExactAudioCopy v0.95b4"
PERFORMER "Little River Band"
TITLE "Little River Band"
FILE "01 - Long Way Home.wav" WAVE
  TRACK 01 AUDIO
    TITLE "Long Way Home"
    PERFORMER "Little River Band"
    FLAGS DCP
    INDEX 01 00:00:00
  TRACK 02 AUDIO
    TITLE "Man On Your Mind"
    PERFORMER "Little River Band"
    FLAGS DCP
    INDEX 00 06:05:35
FILE "02 - Man On Your Mind.wav" WAVE
    INDEX 01 00:00:00
  TRACK 03 AUDIO
    TITLE "This Place"
    PERFORMER "Little River Band"
    FLAGS DCP
    INDEX 00 03:50:36
FILE "03 - This Place.wav" WAVE
    INDEX 01 00:00:00
  TRACK 04 AUDIO
    TITLE "Take It Easy On Me"
    PERFORMER "Little River Band"
    FLAGS DCP
    INDEX 00 04:39:39
FILE "04 - Take It Easy On Me.wav" WAVE
    INDEX 01 00:00:00
  TRACK 05 AUDIO
    TITLE "Happy Anniversary"
    PERFORMER "Little River Band"
    FLAGS DCP
    INDEX 00 03:56:67
FILE "05 - Happy Anniversary.wav" WAVE
    INDEX 01 00:00:00
  TRACK 06 AUDIO
    TITLE "Forever Blue"
    PERFORMER "Little River Band"
    FLAGS DCP
    INDEX 00 04:34:17
FILE "06 - Forever Blue.wav" WAVE
    INDEX 01 00:00:00
  TRACK 07 AUDIO
    TITLE "The Other Guy"
    PERFORMER "Little River Band"
    FLAGS DCP
    INDEX 00 04:45:72
FILE "07 - The Other Guy.wav" WAVE
    INDEX 01 00:00:00
  TRACK 08 AUDIO
    TITLE "Reminiscing"
    PERFORMER "Little River Band"
    FLAGS DCP
    INDEX 00 04:05:25
FILE "08 - Reminiscing.wav" WAVE
    INDEX 01 00:00:00
  TRACK 09 AUDIO
    TITLE "Should I Go"
    PERFORMER "Little River Band"
    FLAGS DCP
    INDEX 00 06:16:37
FILE "09 - Should I Go.wav" WAVE
    INDEX 01 00:00:00
  TRACK 10 AUDIO
    TITLE "We Two\Down On The Border"
    PERFORMER "Little River Band"
    FLAGS DCP
    INDEX 00 04:54:23
FILE "10 - We Two-Down On The Border.wav" WAVE
    INDEX 01 00:00:00
  TRACK 11 AUDIO
    TITLE "Help Is On It's Way"
    PERFORMER "Little River Band"
    FLAGS DCP
    INDEX 00 03:59:21
FILE "11 - Help Is On It's Way.wav" WAVE
    INDEX 01 00:00:00
  TRACK 12 AUDIO
    TITLE "The Night Owls"
    PERFORMER "Little River Band"
    FLAGS DCP
    INDEX 00 04:15:54
FILE "12 - The Night Owls.wav" WAVE
    INDEX 01 00:00:00
  TRACK 13 AUDIO
    TITLE "Cool Change"
    PERFORMER "Little River Band"
    FLAGS DCP
    INDEX 00 05:19:37
FILE "13 - Cool Change.wav" WAVE
    INDEX 01 00:00:00
  TRACK 14 AUDIO
    TITLE "Lonesome Loser"
    PERFORMER "Little River Band"
    FLAGS DCP
    INDEX 00 07:24:45
FILE "14 - Lonesome Loser.wav" WAVE
    INDEX 01 00:00:00
  TRACK 15 AUDIO
    TITLE "Lady"
    PERFORMER "Little River Band"
    FLAGS DCP
    INDEX 00 05:46:35
FILE "15 - Lady.wav" WAVE
    INDEX 01 00:00:00
Little River Band — австралийская рок-группа, образовавшаяся в Мельбурне в 1975 году и назвавшая себя в честь дорожного знака неподалеку от селения Литтл Ливер, штат Виктория.
Little River Band исполняли мелодичный софт-рок, насыщенный вокальными гармониями американского Западного побережья[1] и мотивами музыки кантри (критики не раз отмечали её сходство с The Eagles).[2]
В первый состав Little River Band вошли вокалист Глен Шоррок (англ. Glenn Shorrock), известный по участию в The Twilights, Биб Бёртлс (англ. Beeb Birtles), бас-гитарист из группы Zoot, а также поющий гитарист Грэм Гобл (англ. Graeham Goble), гитарист Рик Формоза (англ. Ric Formosa) и барабанщик Дерек Пеллуччи (англ. Derek Pellicci) — трое последних были участниками Mississippi, группы, долгое время базировавшейся в Лондоне.[1]
Менеджер Гленн Уитли также был известен на австралийской рок-сцене: он играл во многих составах, самым известным из которых был Masters Apprentices. Позже в состав группы вошел известнейший австралийский поп-певец Джон Фарнэм: с ним группа записала три альбома.[2]
В 1978—1981 годы Little River Band шесть раз входили в первую десятку списков Billboard Hot 100 — с синглами «Reminiscing» (#3, их наивысший результат), «Lady» (#10), «Lonesome Loser» (#6), «Cool Change» (#10), «The Night Owls» (#6) «Take It Easy on Me» (#10).
Десять их альбомов входили в Billboard 200[3], два из них — Sleeper Catcher (1978) и Under the Wire (1979) — имеют статус платиновых. За восемь «звездных» лет (начиная с 1976 года) группа провела 13 аншлаговых турне по США.[4] В общей сложности Little River Band продали в США более 25 миллионов пластинок.[2]
Little River Band "Re-arranged", LRB's new studio album!
Lrb2
June 2006 saw the release of the latest Little River Band recording, Re-arranged. Fans that attend the live shows know how LRB love to play around with the arrangements on many of the songs that form the basis of their live set…from subtle changes to some passages, through extended endings and blistering solos, to complete changes such as the now blues-based The Other Guy.
That drive to remain fresh and immediate is at the heart of this latest Little River Band recording, Re-arranged. It reflects the changes to the live arrangements of the songs that have occurred over the years, and have evolved even further with the addition of Billy Thomas and Chris Marion in 2005 and right up to date with Rich Herring in 2006.
The result is a studio CD, but with much more of a “live feel” to it – more raw guitar and vocal sounds with less studio gimmickry to emulate the energy and vibe of the live show. LRB News caught up with Wayne Nelson and Stephen Housden to find out some more about the CD.
Wayne told us “these performances capture a strong vocal blend, with some interesting moments where one of the new voices pops out! Instead of trying to homogenize those moments, they were left alone so the character of the new guys could be heard.”
Stephen thought it was great to hear the live vocal sound in this way. He said "I hear the band every night while I’m playing but it's not the same as sitting in the audience. After sitting back and hearing the final mixes I was first knocked out by how good the harmony blend is on this CD. The band sounds as good as I expected but the vocals are just magic. Hats off to the lads for that."
Wayne added “It’s also the same great guitar work, but with the addition of a couple of solos played by Greg and Rich (see if you can pick which ones – Ed.) It was great fun cutting these tracks with such a solid rhythm section; the session went for 15 hours straight through, but we cut all the tracks in one night.”
The track listing reflects the content of recent live shows, and includes LRB classics as well as some more recent tracks.
To the ears of this listener, the outstanding feature of this recording is the strength, depth and quality of the vocals and harmonies (“as good as ever” according to Stephen Housden) backed up by the same flawless playing and attention to detail that mark every LRB performance. Exceptional drumming (and a great drum sound) underpins every song, and the keyboards - especially some wonderfully crisp electric piano - are given more prominence than on any outing since the Hirschfelder days, lending real depth to the arrangements.
These are classic songs, brilliantly performed, and captured with a real sense of the live feel that was the inspiration for the album. It should find a place in the collection of every LRB fan.
LRB News July 2006 Martin Starkie
Wayne Nelson (bass, lead vocals)
Chris Marion (keyboards, vocals)
Правила, инструкции, FAQ!!!
Торрент  Добавлен [26 мар 2019, 20:24] Скачать торрент Магнет ссылка
Скачать торрент
[ Размер 12.68 КБ / Просмотров 4 ]

Статус
Проверен 
 
Размер  561.52 МБ
Приватный: Нет (DHT включён)
.torrent скачан  0
 


     Отправить личное сообщение
   
Страница 1 из 1
Показать сообщения за:  Поле сортировки  
Начать новую тему Ответить на тему


Сейчас этот форум просматривают: нет зарегистрированных пользователей и гости: 0


Вы не можете начинать темы
Вы не можете отвечать на сообщения
Вы не можете редактировать свои сообщения
Вы не можете удалять свои сообщения
Вы не можете добавлять вложения

Перейти:  
cron