Начать новую тему Ответить на тему
Статистика раздачи
Размер: 433.82 МБ | Добавлен: 26 мар 2019, 19:55 | Скачали: 0
Сидеров: 0  [0 байт/сек]    Личеров: 0  [0 байт/сек]
Пред. тема | След. тема 

Автор
Сообщение

СообщениеДобавлено: 26 мар 2019, 19:55 

Ответить с цитатой 

Gipsy Vagabonds / Gipsy Vagabonds vol.1
Жанр: Rock, Latin, Pop
Носитель: CD
Страна-производитель диска (релиза): Germany
Год издания: 1991
Издатель (лейбл): BMG Ariola Media GmbH
Номер по каталогу: 262179
Аудиокодек: FLAC (*.flac)
Тип рипа: tracks+.cue
Битрейт аудио: lossless
Продолжительность: 1:11:07.
Источник (релизер): clustert
Наличие сканов в содержимом раздачи: да
Треклист:
01. Boxeador (The Boxer) [0:04:05.52]
02. Noches de blanco saten (Nights in White Satin) [0:04:02.08]
03. La Bamba [0:03:43.47]
04. Linda Mañana (Morning Has Broken) [0:03:22.70]
05. Dama en negro (Lady In Black) [0:03:53.58]
06. Comprension (Don´t Let Me Be Misunderstood) [0:04:45.22]
07. Si te vas de mi (If You Leave Me Now) [0:04:03.18]
08. Bote en el rio (Boat On The River) [0:02:44.72]
09. Por Principio (On Principle) [0:04:41.48]
10. Sueños no mas (Dust In The Wind) [0:03:20.60]
11. Bambolero [0:03:28.57]
12. Vincent [0:03:51.55]
13. Help [0:03:16.20]
14. Time After Time [0:05:23.00]
15. Boxeador (The Boxer) - Extended Version [0:07:15.13]
16. Comprensoin (Dont Let Me Be Misunderstood) - Extended Version [0:09:08.62]
Код:
Exact Audio Copy V1.0 beta 3 from 29. August 2011
Отчёт EAC об извлечении, выполненном 26. июня 2016, 2:36
Gipsy Vagabonds / Gipsy Vagabonds Vol. 1
Дисковод: ASUS    DRW-1814BLT   Adapter: 4  ID: 0
Режим чтения                 : Достоверность
Использование точного потока : Да
Отключение кэша аудио        : Да
Использование указателей C2  : Нет
Коррекция смещения при чтении                     : 6
Способность читать области Lead-in и Lead-out     : Нет
Заполнение пропущенных сэмплов тишиной            : Да
Удаление блоков с тишиной в начале и конце        : Нет
При вычислениях CRC использовались нулевые сэмплы : Да
Интерфейс                                         : Встроенный Win32-интерфейс для Win NT/2000
Обработка зазоров                                 : Добавлено к предыдущему треку
Выходной формат          : Пользовательский кодировщик
Выбранный битрейт        : 128 kBit/s
Качество                 : Высокий
Добавление ID3-тега      : Нет
Утилита сжатия           : C:\Program Files\Exact Audio Copy\Flac\flac.exe
Дополнительные параметры :  -V -8 -T "Genre=%genre%" -T "Artist=%artist%" -T "Title=%title%" -T "Album=%albumtitle%" -T "Date=%year%" -T "Tracknumber=%tracknr%" -T "Comment=EAC1.0b2 FLAC -8" %source%
TOC извлечённого CD
     Трек |   Старт  | Длительность | Начальный сектор | Конечный сектор
    ---------------------------------------------------------------------
       1  |  0:00.33 |    4:05.52   |          33      |      18459
       2  |  4:06.10 |    4:02.08   |       18460      |      36617
       3  |  8:08.18 |    3:43.47   |       36618      |      53389
       4  | 11:51.65 |    3:22.70   |       53390      |      68609
       5  | 15:14.60 |    3:53.58   |       68610      |      86142
       6  | 19:08.43 |    4:45.22   |       86143      |     107539
       7  | 23:53.65 |    4:03.18   |      107540      |     125782
       8  | 27:57.08 |    2:44.72   |      125783      |     138154
       9  | 30:42.05 |    4:41.48   |      138155      |     159277
      10  | 35:23.53 |    3:20.60   |      159278      |     174337
      11  | 38:44.38 |    3:28.57   |      174338      |     189994
      12  | 42:13.20 |    3:51.55   |      189995      |     207374
      13  | 46:05.00 |    3:16.20   |      207375      |     222094
      14  | 49:21.20 |    5:23.00   |      222095      |     246319
      15  | 54:44.20 |    7:15.13   |      246320      |     278957
      16  | 61:59.33 |    9:08.62   |      278958      |     320119
Трек  1
     Имя файла R:\Раздача 64\Gipsy Vagabonds - 1991 - Gipsy Vagabonds - Vol. 1\01 Boxeador (The Boxer) .wav
     Длина предзазора  0:00:02.33
     Пиковый уровень 99.0 %
     Скорость извлечения 3.5 X
     Качество трека 99.9 %
     CRC теста 95BE4D81
     CRC копии 95BE4D81
     Точное извлечение (достоверность 2)  [F1F05A8E]  (AR v2)
     Копирование... OK
Трек  2
     Имя файла R:\Раздача 64\Gipsy Vagabonds - 1991 - Gipsy Vagabonds - Vol. 1\02 Noches de blanco saten (Nights in White Satin) .wav
     Длина предзазора  0:00:02.15
     Пиковый уровень 96.3 %
     Скорость извлечения 5.3 X
     Качество трека 100.0 %
     CRC теста C4591B1E
     CRC копии C4591B1E
     Точное извлечение (достоверность 2)  [F2B1000E]  (AR v2)
     Копирование... OK
Трек  3
     Имя файла R:\Раздача 64\Gipsy Vagabonds - 1991 - Gipsy Vagabonds - Vol. 1\03 La Bamba .wav
     Длина предзазора  0:00:03.03
     Пиковый уровень 99.0 %
     Скорость извлечения 5.6 X
     Качество трека 100.0 %
     CRC теста DD4B6415
     CRC копии DD4B6415
     Точное извлечение (достоверность 2)  [CAE67FF3]  (AR v2)
     Копирование... OK
Трек  4
     Имя файла R:\Раздача 64\Gipsy Vagabonds - 1991 - Gipsy Vagabonds - Vol. 1\04 Linda Mañana (Morning Has Broken) .wav
     Пиковый уровень 88.4 %
     Скорость извлечения 5.9 X
     Качество трека 100.0 %
     CRC теста 8AC44BBD
     CRC копии 8AC44BBD
     Точное извлечение (достоверность 2)  [FA29E60B]  (AR v2)
     Копирование... OK
Трек  5
     Имя файла R:\Раздача 64\Gipsy Vagabonds - 1991 - Gipsy Vagabonds - Vol. 1\05 Dama en negro (Lady In Black) .wav
     Пиковый уровень 99.0 %
     Скорость извлечения 6.3 X
     Качество трека 100.0 %
     CRC теста 33EA126B
     CRC копии 33EA126B
     Точное извлечение (достоверность 2)  [A23C145F]  (AR v2)
     Копирование... OK
Трек  6
     Имя файла R:\Раздача 64\Gipsy Vagabonds - 1991 - Gipsy Vagabonds - Vol. 1\06 Comprension (Don´t Let Me Be Misunderstood) .wav
     Пиковый уровень 98.4 %
     Скорость извлечения 6.8 X
     Качество трека 100.0 %
     CRC теста 288EA7C5
     CRC копии 288EA7C5
     Точное извлечение (достоверность 2)  [9F535D8F]  (AR v2)
     Копирование... OK
Трек  7
     Имя файла R:\Раздача 64\Gipsy Vagabonds - 1991 - Gipsy Vagabonds - Vol. 1\07 Si te vas de mi (If You Leave Me Now) .wav
     Пиковый уровень 92.7 %
     Скорость извлечения 7.0 X
     Качество трека 100.0 %
     CRC теста 6A395739
     CRC копии 6A395739
     Точное извлечение (достоверность 2)  [35953359]  (AR v2)
     Копирование... OK
Трек  8
     Имя файла R:\Раздача 64\Gipsy Vagabonds - 1991 - Gipsy Vagabonds - Vol. 1\08 Bote en el rio (Boat On The River) .wav
     Длина предзазора  0:00:00.40
     Пиковый уровень 99.0 %
     Скорость извлечения 6.8 X
     Качество трека 100.0 %
     CRC теста C307511C
     CRC копии C307511C
     Точное извлечение (достоверность 2)  [4BE586A4]  (AR v2)
     Копирование... OK
Трек  9
     Имя файла R:\Раздача 64\Gipsy Vagabonds - 1991 - Gipsy Vagabonds - Vol. 1\09 Por Principio (On Principle) .wav
     Пиковый уровень 99.0 %
     Скорость извлечения 7.6 X
     Качество трека 100.0 %
     CRC теста C0AFCA41
     CRC копии C0AFCA41
     Точное извлечение (достоверность 2)  [30092B42]  (AR v2)
     Копирование... OK
Трек 10
     Имя файла R:\Раздача 64\Gipsy Vagabonds - 1991 - Gipsy Vagabonds - Vol. 1\10 Sueños no mas (Dust In The Wind) .wav
     Пиковый уровень 78.8 %
     Скорость извлечения 7.5 X
     Качество трека 100.0 %
     CRC теста AC660D58
     CRC копии AC660D58
     Точное извлечение (достоверность 2)  [87559A43]  (AR v2)
     Копирование... OK
Трек 11
     Имя файла R:\Раздача 64\Gipsy Vagabonds - 1991 - Gipsy Vagabonds - Vol. 1\11 Bambolero .wav
     Пиковый уровень 97.8 %
     Скорость извлечения 7.8 X
     Качество трека 100.0 %
     CRC теста 12EE2F53
     CRC копии 12EE2F53
     Точное извлечение (достоверность 2)  [AA8FF4B4]  (AR v2)
     Копирование... OK
Трек 12
     Имя файла R:\Раздача 64\Gipsy Vagabonds - 1991 - Gipsy Vagabonds - Vol. 1\12 Vincent .wav
     Пиковый уровень 99.0 %
     Скорость извлечения 5.8 X
     Качество трека 99.9 %
     CRC теста 041EA98D
     CRC копии 041EA98D
     Точное извлечение (достоверность 2)  [11564F3B]  (AR v2)
     Копирование... OK
Трек 13
     Имя файла R:\Раздача 64\Gipsy Vagabonds - 1991 - Gipsy Vagabonds - Vol. 1\13 Help .wav
     Длина предзазора  0:00:00.37
     Пиковый уровень 99.0 %
     Скорость извлечения 8.1 X
     Качество трека 100.0 %
     CRC теста E7C300BD
     CRC копии E7C300BD
     Точное извлечение (достоверность 2)  [FB00C59B]  (AR v2)
     Копирование... OK
Трек 14
     Имя файла R:\Раздача 64\Gipsy Vagabonds - 1991 - Gipsy Vagabonds - Vol. 1\14 Time After Time .wav
     Длина предзазора  0:00:01.57
     Пиковый уровень 87.7 %
     Скорость извлечения 6.6 X
     Качество трека 99.9 %
     CRC теста CAFA2A48
     CRC копии CAFA2A48
     Точное извлечение (достоверность 2)  [37C01C47]  (AR v2)
     Копирование... OK
Трек 15
     Имя файла R:\Раздача 64\Gipsy Vagabonds - 1991 - Gipsy Vagabonds - Vol. 1\15 Boxeador (The Boxer) - Extended Version .wav
     Длина предзазора  0:00:01.00
     Пиковый уровень 99.0 %
     Скорость извлечения 9.6 X
     Качество трека 100.0 %
     CRC теста 5AEC405F
     CRC копии 5AEC405F
     Точное извлечение (достоверность 3)  [71DCB3A8]  (AR v2)
     Копирование... OK
Трек 16
     Имя файла R:\Раздача 64\Gipsy Vagabonds - 1991 - Gipsy Vagabonds - Vol. 1\16 Comprensoin (Dont Let Me Be Misunderstood) - Extended Version .wav
     Длина предзазора  0:00:01.25
     Пиковый уровень 99.0 %
     Скорость извлечения 7.8 X
     Качество трека 99.9 %
     CRC теста 18574FCB
     CRC копии 18574FCB
     Точное извлечение (достоверность 3)  [F6A1CBBC]  (AR v2)
     Копирование... OK
Все треки извлечены точно
Ошибок не произошло
Конец отчёта
==== Контрольная сумма отчёта 9109CDB5A0DE35E8A3C1E12697A264CFF9EC0414EFC17AC8DE7E6787ABE05350 ====
Код:
REM GENRE Latin
REM DATE 1991
REM DISCID E410AC10
REM COMMENT "ExactAudioCopy v1.0b3"
PERFORMER "Gipsy Vagabonds"
TITLE "Gipsy Vagabonds Vol. 1"
FILE "01 Boxeador (The Boxer) .wav" WAVE
  TRACK 01 AUDIO
    TITLE "Boxeador (The Boxer)"
    PERFORMER "Gipsy Vagabonds"
    PREGAP 00:00:33
    INDEX 01 00:00:00
  TRACK 02 AUDIO
    TITLE "Noches de blanco saten (Nights in White Satin)"
    PERFORMER "Gipsy Vagabonds"
    INDEX 00 04:03:37
FILE "02 Noches de blanco saten (Nights in White Satin) .wav" WAVE
    INDEX 01 00:00:00
  TRACK 03 AUDIO
    TITLE "La Bamba"
    PERFORMER "Gipsy Vagabonds"
    INDEX 00 03:59:05
FILE "03 La Bamba .wav" WAVE
    INDEX 01 00:00:00
FILE "04 Linda Manana (Morning Has Broken) .wav" WAVE
  TRACK 04 AUDIO
    TITLE "Linda Manana (Morning Has Broken)"
    PERFORMER "Gipsy Vagabonds"
    INDEX 01 00:00:00
FILE "05 Dama en negro (Lady In Black) .wav" WAVE
  TRACK 05 AUDIO
    TITLE "Dama en negro (Lady In Black)"
    PERFORMER "Gipsy Vagabonds"
    INDEX 01 00:00:00
FILE "06 Comprension (Don.t Let Me Be Misunderstood) .wav" WAVE
  TRACK 06 AUDIO
    TITLE "Comprension (Don.t Let Me Be Misunderstood)"
    PERFORMER "Gipsy Vagabonds"
    INDEX 01 00:00:00
FILE "07 Si te vas de mi (If You Leave Me Now) .wav" WAVE
  TRACK 07 AUDIO
    TITLE "Si te vas de mi (If You Leave Me Now)"
    PERFORMER "Gipsy Vagabonds"
    INDEX 01 00:00:00
  TRACK 08 AUDIO
    TITLE "Bote en el rio (Boat On The River)"
    PERFORMER "Gipsy Vagabonds"
    INDEX 00 04:02:53
FILE "08 Bote en el rio (Boat On The River) .wav" WAVE
    INDEX 01 00:00:00
FILE "09 Por Principio (On Principle) .wav" WAVE
  TRACK 09 AUDIO
    TITLE "Por Principio (On Principle)"
    PERFORMER "Gipsy Vagabonds"
    INDEX 01 00:00:00
FILE "10 Suenos no mas (Dust In The Wind) .wav" WAVE
  TRACK 10 AUDIO
    TITLE "Suenos no mas (Dust In The Wind)"
    PERFORMER "Gipsy Vagabonds"
    INDEX 01 00:00:00
FILE "11 Bambolero .wav" WAVE
  TRACK 11 AUDIO
    TITLE "Bambolero"
    PERFORMER "Gipsy Vagabonds"
    INDEX 01 00:00:00
FILE "12 Vincent .wav" WAVE
  TRACK 12 AUDIO
    TITLE "Vincent"
    PERFORMER "Gipsy Vagabonds"
    INDEX 01 00:00:00
  TRACK 13 AUDIO
    TITLE "Help"
    PERFORMER "Gipsy Vagabonds"
    INDEX 00 03:51:18
FILE "13 Help .wav" WAVE
    INDEX 01 00:00:00
  TRACK 14 AUDIO
    TITLE "Time After Time"
    PERFORMER "Gipsy Vagabonds"
    INDEX 00 03:14:38
FILE "14 Time After Time .wav" WAVE
    INDEX 01 00:00:00
  TRACK 15 AUDIO
    TITLE "Boxeador (The Boxer) - Extended Version"
    PERFORMER "Gipsy Vagabonds"
    INDEX 00 05:22:00
FILE "15 Boxeador (The Boxer) - Extended Version .wav" WAVE
    INDEX 01 00:00:00
  TRACK 16 AUDIO
    TITLE "Comprensoin (Dont Let Me Be Misunderstood) - Extended Version"
    PERFORMER "Gipsy Vagabonds"
    INDEX 00 07:13:63
FILE "16 Comprensoin (Dont Let Me Be Misunderstood) - Extended Version .wav" WAVE
    INDEX 01 00:00:00
Правила, инструкции, FAQ!!!
Торрент  Добавлен [26 мар 2019, 19:55] Скачать торрент Магнет ссылка
Скачать торрент
[ Размер 19.08 КБ / Просмотров 3 ]

Статус
Проверен 
 
Размер  433.82 МБ
Приватный: Нет (DHT включён)
.torrent скачан  0
 


     Отправить личное сообщение
   
Страница 1 из 1
Показать сообщения за:  Поле сортировки  
Начать новую тему Ответить на тему


Сейчас этот форум просматривают: нет зарегистрированных пользователей и гости: 0


Вы не можете начинать темы
Вы не можете отвечать на сообщения
Вы не можете редактировать свои сообщения
Вы не можете удалять свои сообщения
Вы не можете добавлять вложения

Перейти:  
cron