Начать новую тему Ответить на тему
Статистика раздачи
Размер: 380.29 МБ | Добавлен: 26 мар 2019, 19:51 | Скачали: 0
Сидеров: 0  [0 байт/сек]    Личеров: 0  [0 байт/сек]
Пред. тема | След. тема 

Автор
Сообщение

СообщениеДобавлено: 26 мар 2019, 19:51 

Ответить с цитатой 

Koncz Zsuzsa / Egyszeru Ez...
Жанр: Rock
Носитель: CD
Страна-производитель диска: Hungary
Год издания: 2006
Издатель (лейбл): Hungaroton
Номер по каталогу: HCD 71221
Страна исполнителя (группы): Hungary
Аудиокодек: FLAC (*.flac)
Тип рипа: image+.cue
Битрейт аудио: lossless
Продолжительность: 56:29
Источник (релизер): собственный рип
Наличие сканов в содержимом раздачи: да
Треклист:
01.Bájoló 4:32
02.Messzeségek 2:13
03.Szabadság (részletek) 3:09
04.Nekem az ég 3:54
05.Olvadás 4:33
06.Ki minek gondol... (Rongyszőnyeg) 3:31
07.Fényvándor 3:51
08.Egyszerű ez 2:30
09.Őszre fordul 2:30
10.Balkon (dalszöveg) 4:02
11.Húnyt szemmel... 2:24
12.Vagyunk amíg 2:01
13.Tájkép 4:43
14.Április hónapja 3:48
15.Emlék 2:47
16.Felemás őszi ének 2:51
17.Bolyongok 3:17
Код:
Exact Audio Copy V1.0 beta 3 from 29. August 2011
EAC extraction logfile from 15. September 2014, 22:51
Koncz Zsuzsa / Egyszeru ez...
Used drive  : hp      DVDRAM GT31L   Adapter: 1  ID: 0
Read mode               : Secure
Utilize accurate stream : Yes
Defeat audio cache      : Yes
Make use of C2 pointers : No
Read offset correction                      : 103
Overread into Lead-In and Lead-Out          : No
Fill up missing offset samples with silence : Yes
Delete leading and trailing silent blocks   : No
Null samples used in CRC calculations       : Yes
Used interface                              : Native Win32 interface for Win NT & 2000
Used output format              : User Defined Encoder
Selected bitrate                : 768 kBit/s
Quality                         : High
Add ID3 tag                     : Yes
Command line compressor         : C:\Program Files (x86)\Exact Audio Copy\Flac\flac.exe
Additional command line options : -V -8 -T "Date=%year%" -T "Genre=%genre%" %source%
TOC of the extracted CD
     Track |   Start  |  Length  | Start sector | End sector
    ---------------------------------------------------------
        1  |  0:00.00 |  4:29.70 |         0    |    20244
        2  |  4:29.70 |  2:12.14 |     20245    |    30158
        3  |  6:42.09 |  3:11.12 |     30159    |    44495
        4  |  9:53.21 |  3:23.04 |     44496    |    59724
        5  | 13:16.25 |  4:35.49 |     59725    |    80398
        6  | 17:51.74 |  2:51.16 |     80399    |    93239
        7  | 20:43.15 |  3:52.39 |     93240    |   110678
        8  | 24:35.54 |  2:31.50 |    110679    |   122053
        9  | 27:07.29 |  2:33.12 |    122054    |   133540
       10  | 29:40.41 |  4:04.63 |    133541    |   151903
       11  | 33:45.29 |  2:26.28 |    151904    |   162881
       12  | 36:11.57 |  2:03.16 |    162882    |   172122
       13  | 38:14.73 |  4:43.07 |    172123    |   193354
       14  | 42:58.05 |  3:47.25 |    193355    |   210404
       15  | 46:45.30 |  2:50.08 |    210405    |   223162
       16  | 49:35.38 |  2:53.06 |    223163    |   236143
       17  | 52:28.44 |  3:13.34 |    236144    |   250652
Range status and errors
Selected range
     Filename C:\Users\Александр\Desktop\koncz zsuzsa\Koncz Zsuzsa - Egyszeru ez....wav
     Peak level 89.1 %
     Extraction speed 2.1 X
     Range quality 100.0 %
     Test CRC FBE09332
     Copy CRC FBE09332
     Copy OK
No errors occurred
AccurateRip summary
Track  1  accurately ripped (confidence 1)  [438B0490]  (AR v2)
Track  2  accurately ripped (confidence 1)  [9DAC5388]  (AR v2)
Track  3  accurately ripped (confidence 1)  [BCCCBD37]  (AR v2)
Track  4  accurately ripped (confidence 1)  [57FE8210]  (AR v2)
Track  5  accurately ripped (confidence 1)  [9F70320F]  (AR v2)
Track  6  accurately ripped (confidence 1)  [1AE8CBFE]  (AR v2)
Track  7  accurately ripped (confidence 1)  [5D749A60]  (AR v2)
Track  8  accurately ripped (confidence 1)  [DC6DD247]  (AR v2)
Track  9  accurately ripped (confidence 1)  [B7C9B7F2]  (AR v2)
Track 10  accurately ripped (confidence 1)  [0070CBC8]  (AR v2)
Track 11  accurately ripped (confidence 1)  [06810133]  (AR v2)
Track 12  accurately ripped (confidence 1)  [25860036]  (AR v2)
Track 13  accurately ripped (confidence 1)  [331E2CDA]  (AR v2)
Track 14  accurately ripped (confidence 1)  [2EC78B9E]  (AR v2)
Track 15  accurately ripped (confidence 1)  [4B309130]  (AR v2)
Track 16  accurately ripped (confidence 1)  [DD4F9A00]  (AR v2)
Track 17  accurately ripped (confidence 1)  [C7F55F8C]  (AR v2)
All tracks accurately ripped
End of status report
---- CUETools DB Plugin V2.1.3
[CTDB TOCID: jg51mUf0zl7SdP3HCBMVXW6N_pM-] disk not present in database, Submit result: jg51mUf0zl7SdP3HCBMVXW6N_pM- has been uploaded
==== Log checksum 55421B25AA5F4062D851108A79527AEFD7D5E10433B6838CB8D79261132DD053 ====
Код:
REM GENRE Rock
REM DATE 2006
REM DISCID FA0D0E11
REM COMMENT "ExactAudioCopy v1.0b3"
PERFORMER "Koncz Zsuzsa"
TITLE "Egyszeru ez..."
FILE "Koncz Zsuzsa - Egyszeru ez....flac" WAVE
  TRACK 01 AUDIO
    TITLE "Bajolo"
    PERFORMER "Koncz Zsuzsa"
    INDEX 01 00:00:00
  TRACK 02 AUDIO
    TITLE "Messzesegek"
    PERFORMER "Koncz Zsuzsa"
    INDEX 01 04:29:70
  TRACK 03 AUDIO
    TITLE "Szabadsag (Reszletek)"
    PERFORMER "Koncz Zsuzsa"
    INDEX 00 06:40:09
    INDEX 01 06:42:09
  TRACK 04 AUDIO
    TITLE "Nekem az eg"
    PERFORMER "Koncz Zsuzsa"
    INDEX 00 09:51:21
    INDEX 01 09:53:21
  TRACK 05 AUDIO
    TITLE "Olvadas"
    PERFORMER "Koncz Zsuzsa"
    INDEX 01 13:16:25
  TRACK 06 AUDIO
    TITLE "Ki minek gondol... (Rongyszonyeg/127)"
    PERFORMER "Koncz Zsuzsa"
    INDEX 00 17:49:74
    INDEX 01 17:51:74
  TRACK 07 AUDIO
    TITLE "Fenyvandor"
    PERFORMER "Koncz Zsuzsa"
    INDEX 01 20:43:15
  TRACK 08 AUDIO
    TITLE "Egyszeru ez"
    PERFORMER "Koncz Zsuzsa"
    INDEX 00 24:33:54
    INDEX 01 24:35:54
  TRACK 09 AUDIO
    TITLE "Oszre fordul"
    PERFORMER "Koncz Zsuzsa"
    INDEX 00 27:05:29
    INDEX 01 27:07:29
  TRACK 10 AUDIO
    TITLE "Balkon (Dalszoveg)"
    PERFORMER "Koncz Zsuzsa"
    INDEX 01 29:40:41
  TRACK 11 AUDIO
    TITLE "Hunyt szemmel..."
    PERFORMER "Koncz Zsuzsa"
    INDEX 00 33:43:29
    INDEX 01 33:45:29
  TRACK 12 AUDIO
    TITLE "Vagyunk amig"
    PERFORMER "Koncz Zsuzsa"
    INDEX 00 36:09:57
    INDEX 01 36:11:57
  TRACK 13 AUDIO
    TITLE "Tajkep"
    PERFORMER "Koncz Zsuzsa"
    INDEX 00 38:12:73
    INDEX 01 38:14:73
  TRACK 14 AUDIO
    TITLE "Aprilis honapja"
    PERFORMER "Koncz Zsuzsa"
    INDEX 00 42:56:05
    INDEX 01 42:58:05
  TRACK 15 AUDIO
    TITLE "Emlek"
    PERFORMER "Koncz Zsuzsa"
    INDEX 01 46:45:30
  TRACK 16 AUDIO
    TITLE "Felemas oszi enek"
    PERFORMER "Koncz Zsuzsa"
    INDEX 00 49:33:38
    INDEX 01 49:35:38
  TRACK 17 AUDIO
    TITLE "Bolyongok"
    PERFORMER "Koncz Zsuzsa"
    INDEX 00 52:26:44
    INDEX 01 52:28:44
Жужа Конц родилась 7-го марта 1946 года. Выступала в таких известных группах Венгрии как Фонограф и Илеш. Обладатель премии Ференца Листа (1977г.), Кавалер ордена Почётного легиона (2001г.), лауреат премии Кошута (2008г.)
В альбом "Egyszeru ez..." ("Это просто...") вошли песни на стихи классиков венгерской литературы таких как József Attila (Йожеф Аттила), Radnóti (Радноти) и современных поэтов Венгрии.
Правила, инструкции, FAQ!!!
Торрент  Добавлен [26 мар 2019, 19:51] Скачать торрент Магнет ссылка
Скачать торрент
[ Размер 15.94 КБ / Просмотров 10 ]

Статус
Проверен 
 
Размер  380.29 МБ
Приватный: Нет (DHT включён)
.torrent скачан  0
 


     Отправить личное сообщение
   
Страница 1 из 1
Показать сообщения за:  Поле сортировки  
Начать новую тему Ответить на тему


Сейчас этот форум просматривают: нет зарегистрированных пользователей и гости: 0


Вы не можете начинать темы
Вы не можете отвечать на сообщения
Вы не можете редактировать свои сообщения
Вы не можете удалять свои сообщения
Вы не можете добавлять вложения

Перейти:  
cron