Начать новую тему Ответить на тему
Статистика раздачи
Размер: 304.79 МБ | Добавлен: 26 мар 2019, 19:12 | Скачали: 0
Сидеров: 1  [0 байт/сек]    Личеров: 0  [0 байт/сек]
Пред. тема | След. тема 

Автор
Сообщение

СообщениеДобавлено: 26 мар 2019, 19:12 

Ответить с цитатой 

Kelly Osbourne - Shut Up
Жанр: Rock
Год выпуска диска: 2002
Производитель диска: Русский стандарт
Аудио кодек: APE
Тип рипа: image+.cue
Битрейт аудио: lossless
Продолжительность: 0:45:41
Трэклист:
CD: Kelly Osbourne - Shut Up
01. Disconnected [0:03:52.17]
02. Come Dig Me Out [0:03:31.20]
03. Contradiction [0:03:14.73]
04. Coolhead [0:02:57.25]
05. Right Here [0:03:30.72]
06. Shut Up [0:02:46.68]
07. On The Run [0:02:41.47]
08. On Your Own [0:03:02.53]
09. Too Much Of You [0:03:07.72]
10. Everything's Alright [0:02:40.10]
11. More Than Life Itself [0:04:41.29]
12. Papa Don't Preach [0:03:25.47]
13. Data [0:06:08.09]
С интернета:
Келли Мишель Ли Осборн (англ. Kelly Osbourne, родилась 27 октября 1984 в Лондоне) — певица, актриса и художник-модельер.
Наверное, превращение Келли Осборн, дочери всеми любимой иконы хеви-металла (Оззи) и его расчетливой жены-менеджера в поп-звезду было делом неизбежным.
Exact Audio Copy V0.99 prebeta 4 from 23. January 2008
EAC extraction logfile from 20. April 2009, 21:44
Kelly Osbourne / Shut Up
Used drive : Optiarc DVD RW AD-7173A Adapter: 3 ID: 0
Read mode : Secure
Utilize accurate stream : Yes
Defeat audio cache : Yes
Make use of C2 pointers : No
Read offset correction : 48
Overread into Lead-In and Lead-Out : No
Fill up missing offset samples with silence : Yes
Delete leading and trailing silent blocks : No
Null samples used in CRC calculations : Yes
Used interface : Native Win32 interface for Win NT & 2000
Used output format : Internal WAV Routines
Sample format : 44.100 Hz; 16 Bit; Stereo
TOC of the extracted CD
Track | Start | Length | Start sector | End sector
---------------------------------------------------------
1 | 0:00.00 | 3:52.17 | 0 | 17416
2 | 3:52.17 | 3:31.20 | 17417 | 33261
3 | 7:23.37 | 3:14.73 | 33262 | 47884
4 | 10:38.35 | 2:57.25 | 47885 | 61184
5 | 13:35.60 | 3:30.72 | 61185 | 77006
6 | 17:06.57 | 2:46.68 | 77007 | 89524
7 | 19:53.50 | 2:41.47 | 89525 | 101646
8 | 22:35.22 | 3:02.53 | 101647 | 115349
9 | 25:38.00 | 3:07.72 | 115350 | 129446
10 | 28:45.72 | 2:40.10 | 129447 | 141456
11 | 31:26.07 | 4:41.29 | 141457 | 162560
12 | 36:07.36 | 3:25.47 | 162561 | 177982
13 | 42:05.08 | 6:08.09 | 189383 | 216991
Range status and errors
Selected range
Filename C:\Documents and Settings\Юрий\Рабочий стол\Новая папка 1\Kelly Osbourne - Shut Up\Kelly Osbourne - Shut Up.wav
Suspicious position 0:10:56
Suspicious position 0:37:48
Suspicious position 0:38:14
Suspicious position 0:38:50
Suspicious position 0:38:59
Suspicious position 0:39:06
Peak level 98.8 %
Range quality 99.3 %
Copy CRC 5666F7CE
Copy finished
There were errors
AccurateRip summary
Track 1 cannot be verified as accurate (confidence 5) [B485548B], AccurateRip returned [4D2F39D6]
Track 2 cannot be verified as accurate (confidence 5) [7E3ECCF7], AccurateRip returned [A99D93C8]
Track 3 cannot be verified as accurate (confidence 5) [186B8C97], AccurateRip returned [9713656A]
Track 4 cannot be verified as accurate (confidence 5) [89ED8D40], AccurateRip returned [E3BE6C90]
Track 5 cannot be verified as accurate (confidence 5) [BEC1ED5E], AccurateRip returned [5A90BECE]
Track 6 cannot be verified as accurate (confidence 5) [BC751751], AccurateRip returned [9AF843E6]
Track 7 cannot be verified as accurate (confidence 5) [4C43B4C1], AccurateRip returned [039C2734]
Track 8 cannot be verified as accurate (confidence 5) [5660EB7C], AccurateRip returned [C4ECAD30]
Track 9 cannot be verified as accurate (confidence 5) [23985CDC], AccurateRip returned [FAC5649C]
Track 10 cannot be verified as accurate (confidence 5) [A9336098], AccurateRip returned [26408E98]
Track 11 cannot be verified as accurate (confidence 5) [68C715E4], AccurateRip returned [5440C69B]
Track 12 cannot be verified as accurate (confidence 4) [D45F7328], AccurateRip returned [AF8E6800]
No tracks could be verified as accurate
End of status report
Правила, инструкции, FAQ!!!
Торрент  Добавлен [26 мар 2019, 19:12] Скачать торрент Магнет ссылка
Скачать торрент
[ Размер 12.68 КБ / Просмотров 5 ]

Статус
Проверен 
 
Размер  304.79 МБ
Приватный: Нет (DHT включён)
.torrent скачан  0
 


     Отправить личное сообщение
   
Страница 1 из 1
Показать сообщения за:  Поле сортировки  
Начать новую тему Ответить на тему


Сейчас этот форум просматривают: нет зарегистрированных пользователей и гости: 0


Вы не можете начинать темы
Вы не можете отвечать на сообщения
Вы не можете редактировать свои сообщения
Вы не можете удалять свои сообщения
Вы не можете добавлять вложения

Перейти:  
cron