Начать новую тему Ответить на тему
Статистика раздачи
Размер: 445.82 МБ | Добавлен: 26 мар 2019, 19:44 | Скачали: 1
Сидеров: 38  [0 байт/сек]    Личеров: 6  [0 байт/сек]
Пред. тема | След. тема 

Автор
Сообщение

СообщениеДобавлено: 26 мар 2019, 19:44 

Ответить с цитатой 

Kelly Osbourne - Changes
Жанр: Rock
Год выпуска диска: 2003
Производитель диска: Европейский Союз
Аудио кодек: FLAC
Тип рипа: image+.cue
Битрейт аудио: lossless
Продолжительность: 59:26
Трэклист:
01. Disconnected
02. Come Dig Me Out
03. Contradiction
04. Coolhead
05. Right Here
06. Shut Up
07. On the Run
08. On Your Own
09. Too Much of You
10. Everything's Alright
11. More Than Life Itself
12. Papa Don't Preach
13. Dig Me Out (live)
14. Disconnected (live)
15. Too Much of You (live)
16. On the Run (live)
17. Changes (with Ozzy Osbourne)
Код:
Exact Audio Copy V0.99 prebeta 5 from 4. May 2009
Отчёт EAC об извлечении, выполненном 31. июля 2009, 17:02
Kelly Osbourne / Changes
Дисковод: _NEC    DVD+-RW ND-6650A   Adapter: 0  ID: 1
Режим чтения                 : Достоверность
Использование точного потока : Да
Отключение кэша аудио        : Да
Использование указателей C2  : Нет
Коррекция смещения при чтении                     : 48
Способность читать области Lead-in и Lead-out     : Нет
Заполнение пропущенных сэмплов тишиной            : Да
Удаление блоков с тишиной в начале и конце        : Нет
При вычислениях CRC использовались нулевые сэмплы : Да
Интерфейс                                         : Встроенный Win32-интерфейс для Win NT/2000
Выходной формат          : Пользовательский кодировщик
Выбранный битрейт        : 1024 kBit/s
Качество                 : Высокий
Добавление ID3-тэга      : Да
Утилита сжатия           : C:\Program Files\Exact Audio Copy\FLAC\FLAC.EXE
Дополнительные параметры : -6 -V -T "ARTIST=%a" -T "TITLE=%t" -T "ALBUM=%g" -T "DATE=%y" -T "TRACKNUMBER=%n" -T "GENRE=%m" -T "COMMENT=%e" %s -o %d
TOC извлечённого CD
     Трек |   Старт  | Длительность | Начальный сектор | Конечный сектор
    ---------------------------------------------------------------------
       1  |  0:00.00 |    3:52.38   |           0      |      17437
       2  |  3:52.38 |    3:31.20   |       17438      |      33282
       3  |  7:23.58 |    3:14.62   |       33283      |      47894
       4  | 10:38.45 |    2:57.35   |       47895      |      61204
       5  | 13:36.05 |    3:30.63   |       61205      |      77017
       6  | 17:06.68 |    2:47.02   |       77018      |      89544
       7  | 19:53.70 |    2:41.38   |       89545      |     101657
       8  | 22:35.33 |    3:02.62   |      101658      |     115369
       9  | 25:38.20 |    3:07.63   |      115370      |     129457
      10  | 28:46.08 |    2:40.10   |      129458      |     141467
      11  | 31:26.18 |    4:40.35   |      141468      |     162502
      12  | 36:06.53 |    3:25.19   |      162503      |     177896
      13  | 39:31.72 |    3:54.51   |      177897      |     195497
      14  | 43:26.48 |    4:07.08   |      195498      |     214030
      15  | 47:33.56 |    3:34.15   |      214031      |     230095
      16  | 51:07.71 |    4:11.33   |      230096      |     248953
      17  | 55:19.29 |    4:07.01   |      248954      |     267479
Характеристики диапазона извлечения и сообщения об ошибках
Выбранный диапазон
     Имя файла C:\Documents and Settings\Владелец\Мои документы\Музыка\Kelly Osbourne\Kelly Osbourne - Changes.wav
     Пиковый уровень 99.8 %
     Качество диапазона 100.0 %
     CRC копии F6164649
     Копирование... OK
Ошибок не произошло
AccurateRip: сводка
Трек  1  точность не определена (достоверность 2)  [C7042E44], AccurateRip вернул [AE881459]
Трек  2  точность не определена (достоверность 2)  [BB32541A], AccurateRip вернул [7F6F415D]
Трек  3  точность не определена (достоверность 2)  [FDE15B6E], AccurateRip вернул [EE9AB90A]
Трек  4  точность не определена (достоверность 2)  [7ECFDD64], AccurateRip вернул [AD074E88]
Трек  5  точность не определена (достоверность 2)  [47B05066], AccurateRip вернул [FF838ABE]
Трек  6  точность не определена (достоверность 2)  [2EC33662], AccurateRip вернул [60CF933F]
Трек  7  точность не определена (достоверность 2)  [5C05B600], AccurateRip вернул [4225112F]
Трек  8  точность не определена (достоверность 2)  [ECC3E476], AccurateRip вернул [52943448]
Трек  9  точность не определена (достоверность 2)  [FDE54FFC], AccurateRip вернул [01B9865C]
Трек 10  точность не определена (достоверность 2)  [B7A72798], AccurateRip вернул [13A9F298]
Трек 11  точность не определена (достоверность 2)  [324F8612], AccurateRip вернул [0C9BDAAB]
Трек 12  точность не определена (достоверность 2)  [46C00443], AccurateRip вернул [4819B4EA]
Трек 13  точность не определена (достоверность 2)  [CF8F02EF], AccurateRip вернул [F671AB3D]
Трек 14  точность не определена (достоверность 2)  [F770140B], AccurateRip вернул [A8A3FB81]
Трек 15  точность не определена (достоверность 2)  [299BF768], AccurateRip вернул [6716C85D]
Трек 16  точность не определена (достоверность 2)  [4DA55057], AccurateRip вернул [F7E77122]
Трек 17  точность не определена (достоверность 2)  [0A1C0056], AccurateRip вернул [09EB5742]
Ни один трек не прошёл проверки на точность
В вашей базе может быть иной вариант штамповки диска
Конец отчёта
Правила, инструкции, FAQ!!!
Торрент  Добавлен [26 мар 2019, 19:44] Скачать торрент Магнет ссылка
Скачать торрент
[ Размер 18.06 КБ / Просмотров 20 ]

Статус
Проверен 
 
Размер  445.82 МБ
Приватный: Нет (DHT включён)
.torrent скачан  1
 


     Отправить личное сообщение
   
Страница 1 из 1
Показать сообщения за:  Поле сортировки  
Начать новую тему Ответить на тему


Сейчас этот форум просматривают: нет зарегистрированных пользователей и гости: 0


Вы не можете начинать темы
Вы не можете отвечать на сообщения
Вы не можете редактировать свои сообщения
Вы не можете удалять свои сообщения
Вы не можете добавлять вложения

Перейти:  
cron