Начать новую тему Ответить на тему
Статистика раздачи
Размер: 212.94 МБ | Добавлен: 26 мар 2019, 20:08 | Скачали: 0
Сидеров: 0  [0 байт/сек]    Личеров: 0  [0 байт/сек]
Пред. тема | След. тема 

Автор
Сообщение

СообщениеДобавлено: 26 мар 2019, 20:08 

Ответить с цитатой 

Os Lobos / Miragem
Жанр: Rock, Jovem Guarda, Rock & Roll, Psychedelic Pop
Страна-производитель диска: EU
Год издания диска: 1971
Издатель (лейбл): Mandrax
Номер по каталогу: MX0802CD
Страна: Niterói, Rio de Janeiro, Brazil
Аудиокодек: FLAC (*.flac)
Тип рипа: tracks+.cue
Битрейт аудио: lossless
Продолжительность: 30:16
Источник (релизер): Рип с собсвенного диска
Наличие сканов в содержимом раздачи: да
Треклист:
01. - Seu Lobo - 01:52
02. - O Hemem de Neanderthal - 03:08
03. - Avenida Central - 03:26
04. - Meu Amor Por Cristina - 03:13
05. - You - 03:08
06. - Miragem - 03:19
07. - Santa Teresa - 02:11
08. - Doroteia - 05:11
09. - Carro Branco - 02:22
10. - Pasta Dental Sabor Chicletes - 02:21
Код:
Exact Audio Copy V1.0 beta 1 from 15. November 2010
EAC extraction logfile from 6. August 2011, 16:35
Os Lobos / Miragem
Used drive  : Optiarc DVD RW AD-7203A   Adapter: 1  ID: 0
Read mode               : Secure
Utilize accurate stream : Yes
Defeat audio cache      : Yes
Make use of C2 pointers : No
Read offset correction                      : 48
Overread into Lead-In and Lead-Out          : No
Fill up missing offset samples with silence : Yes
Delete leading and trailing silent blocks   : No
Null samples used in CRC calculations       : Yes
Used interface                              : Installed external ASPI interface
Gap handling                                : Appended to previous track
Used output format              : Пользовательский кодировщик
Selected bitrate                : 1024 kBit/s
Quality                         : High
Add ID3 tag                     : No
Command line compressor         : C:\Program Files\Exact Audio Copy\FLAC\FLAC.EXE
Additional command line options : -6 -V -T "ARTIST=%a" -T "TITLE=%t" -T "ALBUM=%g" -T "DATE=%y" -T "TRACKNUMBER=%n" -T "GENRE=%m" -T "COMMENT=%e" %j--picture="%i"%j %s -o %d
TOC of the extracted CD
     Track |   Start  |  Length  | Start sector | End sector
    ---------------------------------------------------------
        1  |  0:00.00 |  1:55.62 |         0    |     8686
        2  |  1:55.62 |  3:12.63 |      8687    |    23149
        3  |  5:08.50 |  3:30.36 |     23150    |    38935
        4  |  8:39.11 |  3:16.33 |     38936    |    53668
        5  | 11:55.44 |  3:12.45 |     53669    |    68113
        6  | 15:08.14 |  3:23.37 |     68114    |    83375
        7  | 18:31.51 |  2:15.65 |     83376    |    93565
        8  | 20:47.41 |  5:15.65 |     93566    |   117255
        9  | 26:03.31 |  2:27.28 |    117256    |   128308
       10  | 28:30.59 |  2:21.60 |    128309    |   138943
Track  1
     Filename C:\EAC\01.  - Seu Lobo.wav
     Pre-gap length  0:00:02.00
     Peak level 98.5 %
     Extraction speed 1.9 X
     Track quality 100.0 %
     Test CRC 3DD58DE1
     Copy CRC 3DD58DE1
     Track not present in AccurateRip database
     Copy OK
Track  2
     Filename C:\EAC\02.  - O Hemem de Neanderthal.wav
     Pre-gap length  0:00:03.53
     Peak level 100.0 %
     Extraction speed 2.3 X
     Track quality 100.0 %
     Test CRC 25FD7C01
     Copy CRC 25FD7C01
     Track not present in AccurateRip database
     Copy OK
Track  3
     Filename C:\EAC\03.  - Avenida Central.wav
     Pre-gap length  0:00:04.45
     Peak level 98.0 %
     Extraction speed 2.6 X
     Track quality 100.0 %
     Test CRC 379DA337
     Copy CRC 379DA337
     Track not present in AccurateRip database
     Copy OK
Track  4
     Filename C:\EAC\04.  - Meu Amor Por Cristina.wav
     Pre-gap length  0:00:04.00
     Peak level 99.1 %
     Extraction speed 2.7 X
     Track quality 100.0 %
     Test CRC 46EA66A0
     Copy CRC 46EA66A0
     Track not present in AccurateRip database
     Copy OK
Track  5
     Filename C:\EAC\05.  - You.wav
     Pre-gap length  0:00:03.00
     Peak level 100.0 %
     Extraction speed 2.5 X
     Track quality 99.9 %
     Test CRC C7EFE532
     Copy CRC C7EFE532
     Track not present in AccurateRip database
     Copy OK
Track  6
     Filename C:\EAC\06.  - Miragem.wav
     Pre-gap length  0:00:04.16
     Peak level 94.7 %
     Extraction speed 3.1 X
     Track quality 100.0 %
     Test CRC C984FA5D
     Copy CRC C984FA5D
     Track not present in AccurateRip database
     Copy OK
Track  7
     Filename C:\EAC\07.  - Santa Teresa.wav
     Pre-gap length  0:00:03.97
     Peak level 100.0 %
     Extraction speed 3.0 X
     Track quality 100.0 %
     Test CRC 73704C76
     Copy CRC 73704C76
     Track not present in AccurateRip database
     Copy OK
Track  8
     Filename C:\EAC\08.  - Doroteia.wav
     Pre-gap length  0:00:03.92
     Peak level 80.7 %
     Extraction speed 3.7 X
     Track quality 100.0 %
     Test CRC DFC34504
     Copy CRC DFC34504
     Track not present in AccurateRip database
     Copy OK
Track  9
     Filename C:\EAC\09.  - Carro Branco.wav
     Pre-gap length  0:00:04.33
     Peak level 100.0 %
     Extraction speed 3.4 X
     Track quality 100.0 %
     Test CRC F402A5CB
     Copy CRC F402A5CB
     Track not present in AccurateRip database
     Copy OK
Track 10
     Filename C:\EAC\10.  - Pasta Dental Sabor Chicletes.wav
     Pre-gap length  0:00:04.76
     Peak level 94.2 %
     Extraction speed 2.8 X
     Track quality 99.9 %
     Test CRC 4A766276
     Copy CRC 4A766276
     Track not present in AccurateRip database
     Copy OK
None of the tracks are present in the AccurateRip database
No errors occurred
End of status report
==== Log checksum 3779DF6C5DA6EE0844B29464CBA05A846BCBB7576C7A090CFAF4AE989BC8841F ====
Код:
REM GENRE Psychedelic
REM DATE 1971
REM DISCID 62073C0A
REM COMMENT "ExactAudioCopy v1.0b1"
PERFORMER "Os Lobos"
TITLE "Miragem"
FILE "01.  - Seu Lobo.wav" WAVE
  TRACK 01 AUDIO
    TITLE "Seu Lobo"
    PERFORMER "Os Lobos"
    INDEX 01 00:00:00
  TRACK 02 AUDIO
    TITLE "O Hemem de Neanderthal"
    PERFORMER "Os Lobos"
    INDEX 00 01:52:22
FILE "02.  - O Hemem de Neanderthal.wav" WAVE
    INDEX 01 00:00:00
  TRACK 03 AUDIO
    TITLE "Avenida Central"
    PERFORMER "Os Lobos"
    INDEX 00 03:08:29
FILE "03.  - Avenida Central.wav" WAVE
    INDEX 01 00:00:00
  TRACK 04 AUDIO
    TITLE "Meu Amor Por Cristina"
    PERFORMER "Os Lobos"
    INDEX 00 03:26:36
FILE "04.  - Meu Amor Por Cristina.wav" WAVE
    INDEX 01 00:00:00
  TRACK 05 AUDIO
    TITLE "You"
    PERFORMER "Os Lobos"
    INDEX 00 03:13:33
FILE "05.  - You.wav" WAVE
    INDEX 01 00:00:00
  TRACK 06 AUDIO
    TITLE "Miragem"
    PERFORMER "Os Lobos"
    INDEX 00 03:08:33
FILE "06.  - Miragem.wav" WAVE
    INDEX 01 00:00:00
  TRACK 07 AUDIO
    TITLE "Santa Teresa"
    PERFORMER "Os Lobos"
    INDEX 00 03:19:39
FILE "07.  - Santa Teresa.wav" WAVE
    INDEX 01 00:00:00
  TRACK 08 AUDIO
    TITLE "Doroteia"
    PERFORMER "Os Lobos"
    INDEX 00 02:11:71
FILE "08.  - Doroteia.wav" WAVE
    INDEX 01 00:00:00
  TRACK 09 AUDIO
    TITLE "Carro Branco"
    PERFORMER "Os Lobos"
    INDEX 00 05:11:40
FILE "09.  - Carro Branco.wav" WAVE
    INDEX 01 00:00:00
  TRACK 10 AUDIO
    TITLE "Pasta Dental Sabor Chicletes"
    PERFORMER "Os Lobos"
    INDEX 00 02:22:46
FILE "10.  - Pasta Dental Sabor Chicletes.wav" WAVE
    INDEX 01 00:00:00
Доп. информация: http://rateyourmusic.com/artist/os_lobos
http://www.forcedexposure.com/artists/os.lobos.html
Dalto - vocals
Cristina - vocals
Ronaldo - guitar
Cassio - guitar
Fabio - keyboards
Francisco - bass
Claudio - drums
Правила, инструкции, FAQ!!!
Торрент  Добавлен [26 мар 2019, 20:08] Скачать торрент Магнет ссылка
Скачать торрент
[ Размер 18.08 КБ / Просмотров 5 ]

Статус
Проверен 
 
Размер  212.94 МБ
Приватный: Нет (DHT включён)
.torrent скачан  0
 


     Отправить личное сообщение
   
Страница 1 из 1
Показать сообщения за:  Поле сортировки  
Начать новую тему Ответить на тему


Сейчас этот форум просматривают: нет зарегистрированных пользователей и гости: 0


Вы не можете начинать темы
Вы не можете отвечать на сообщения
Вы не можете редактировать свои сообщения
Вы не можете удалять свои сообщения
Вы не можете добавлять вложения

Перейти:  
cron