Начать новую тему Ответить на тему
Статистика раздачи
Размер: 279.82 МБ | Добавлен: 24 ноя 2020, 12:06 | Скачали: 3
Сидеров: 63  [0 байт/сек]    Личеров: 22  [0 байт/сек]
Пред. тема | След. тема 

Автор
Сообщение

СообщениеДобавлено: 24 ноя 2020, 12:06 

Ответить с цитатой 


Инкогнито

ОВЗЛ





• Жанр: Rock
• Носитель: STREAM
• Год издания: 2020
• Страна: Russia
• Аудиокодек: FLAC (*.flac)
• Тип рипа: tracks
• Продолжительность: 00:40:34
• Источник: deezer
• Наличие сканов: front
Tracklist:
01 - Тени На Теле (00:03:27)
02 - Воздух (00:03:29)
03 - Овзл (00:03:20)
04 - Созвучны (00:02:48)
05 - Крылья (00:03:07)
06 - Камень На Камне (00:03:43)
07 - Спутник (00:03:54)
08 - Не Имеет Значения (00:03:26)
09 - Чистая Вода (00:03:15)
10 - Солнце Теряет Лучи (00:03:20)
11 - Утро Ранено (00:03:12)
12 - Ртуть (00:03:27)

Код:
foobar2000 1.4.2 / Dynamic Range Meter 1.1.1
log date: 2020-11-23 13:42:28
--------------------------------------------------------------------------------
Analyzed: Инкогнито / Овзл
--------------------------------------------------------------------------------
DR         Peak         RMS     Duration Track
--------------------------------------------------------------------------------
DR5       -0.50 dB    -7.46 dB      3:27 01-Тени На Теле
DR6       -0.50 dB    -6.85 dB      3:30 02-Воздух
DR6       -0.49 dB    -8.51 dB      3:20 03-Овзл
DR6       -0.50 dB    -6.73 dB      2:49 04-Созвучны
DR6       -0.51 dB    -8.52 dB      3:08 05-Крылья
DR5       -0.51 dB    -7.97 dB      3:44 06-Камень На Камне
DR7       -0.49 dB    -9.12 dB      3:54 07-Спутник
DR5       -0.51 dB    -7.87 dB      3:27 08-Не Имеет Значения
DR6       -0.51 dB    -9.27 dB      3:15 09-Чистая Вода
DR5       -0.51 dB    -7.44 dB      3:21 10-Солнце Теряет Лучи
DR5       -0.51 dB    -7.97 dB      3:12 11-Утро Ранено
DR6       -0.50 dB    -9.08 dB      3:27 12-Ртуть
--------------------------------------------------------------------------------
Number of tracks:  12
Official DR value: DR6
Samplerate:        44100 Hz
Channels:          2
Bits per sample:   16
Bitrate:           946 kbps
Codec:             FLAC
================================================================================

Код:
-----------------------
DON'T MODIFY THIS FILE
-----------------------
PERFORMER: auCDtect Task Manager, ver. 1.5.1RC3 build 1.5.1.4
Copyright (c) 2008-2010 y-soft. All rights reserved
[url=http://y-soft.org]http://y-soft.org[/url]
ANALYZER: auCDtect: CD records authenticity detector, version 0.8.2
Copyright (c) 2004 Oleg Berngardt. All rights reserved.
Copyright (c) 2004 Alexander Djourik. All rights reserved.
FILE: 12 - Ртуть.flac
  Size: 24567011 Hash: 2456F65E8B6F5D1850CD31FEF8937B28 Accuracy: -m40
  Conclusion: CDDA 100%
  Signature: 96BF11786FC272FBAC082680B2747566C5298222
FILE: 11 - Утро Ранено.flac
  Size: 22289446 Hash: 59691B77F65EC7580BA48DF0BA8EF097 Accuracy: -m40
  Conclusion: CDDA 100%
  Signature: 239544587672BC82E30A87454C24BCA6FC52E64F
FILE: 10 - Солнце Теряет Лучи.flac
  Size: 24181895 Hash: 12C708D7A85DA14C917DF11BCBFCC3F7 Accuracy: -m40
  Conclusion: CDDA 100%
  Signature: 26465B920796DF545450281CB23BF481A658C4DC
FILE: 09 - Чистая Вода.flac
  Size: 24533267 Hash: 896FC8630C7480ABFEDE50280D6F49C2 Accuracy: -m40
  Conclusion: CDDA 99%
  Signature: 24D902C79ACAC8C75947DCB63624D627BDB275CA
FILE: 08 - Не Имеет Значения.flac
  Size: 25349274 Hash: B558BEBBECCC721ACC64016DC6960DF2 Accuracy: -m40
  Conclusion: CDDA 100%
  Signature: 54B058145E918C5CF65221F9B47E8622A6AF46E0
FILE: 07 - Спутник.flac
  Size: 27645657 Hash: 945BAFB1FCF14F99EDF9688EB870E390 Accuracy: -m40
  Conclusion: CDDA 100%
  Signature: F84391AB1C6499847F70FD13D66E00CE5652EAEF
FILE: 06 - Камень На Камне.flac
  Size: 26673364 Hash: 9D5CF5F229B88485C1E829FBB2CDDCC3 Accuracy: -m40
  Conclusion: CDDA 100%
  Signature: ABBDA38A2BE97375B445934FA59F92688507FA68
FILE: 05 - Крылья.flac
  Size: 22526430 Hash: ABA7C6330EEB1AEA6959E5A1ED4D476A Accuracy: -m40
  Conclusion: CDDA 100%
  Signature: 80B0BF2B0AA3E328AA5E0883DD22D9969225E4C9
FILE: 04 - Созвучны.flac
  Size: 20771574 Hash: CCC0C6278A06FBF10B01F0E99F1FD728 Accuracy: -m40
  Conclusion: CDDA 100%
  Signature: 48F045A3FB20959570CDAF5D8EFFADC0509F12E0
FILE: 03 - Овзл.flac
  Size: 24164543 Hash: 95EE91636B8DC119DCBB72F5D6A3CC4B Accuracy: -m40
  Conclusion: CDDA 100%
  Signature: AB26124734E78F67336C7C84314522F980AEF578
FILE: 02 - Воздух.flac
  Size: 25613613 Hash: E0C0D2064A5F033E59CE58E17D20E03F Accuracy: -m40
  Conclusion: CDDA 100%
  Signature: 54A555D068833A92B7BD0C6C43990556D1C395FD
FILE: 01 - Тени На Теле.flac
  Size: 24480303 Hash: 50C09ECEB0FE38C67A7A6822BB4B22CF Accuracy: -m40
  Conclusion: CDDA 100%
  Signature: 2942E7E1C3492AC04F13850ED9B7A25659E6AB40

Правила, инструкции, FAQ!!!
Торрент  Добавлен [24 ноя 2020, 12:06] Скачать торрент Магнет ссылка
Скачать торрент
[ Размер 12.13 КБ / Просмотров 173 ]

Статус
Проверен 
 
Размер  279.82 МБ
Приватный: Нет (DHT включён)
.torrent скачан  3
 


     Отправить личное сообщение
   
Страница 1 из 1
Показать сообщения за:  Поле сортировки  
Начать новую тему Ответить на тему


Сейчас этот форум просматривают: нет зарегистрированных пользователей и гости: 0


Вы не можете начинать темы
Вы не можете отвечать на сообщения
Вы не можете редактировать свои сообщения
Вы не можете удалять свои сообщения
Вы не можете добавлять вложения

Перейти:  
cron