Начать новую тему Ответить на тему
Статистика раздачи
Размер: 1017.8 МБ | Добавлен: 26 мар 2019, 20:44 | Скачали: 0
Сидеров: 1  [0 байт/сек]    Личеров: 0  [0 байт/сек]
Пред. тема | След. тема 

Автор
Сообщение

СообщениеДобавлено: 26 мар 2019, 20:44 

Ответить с цитатой 

Hunters and Collectors - 2 Альбома, 1 Сингл 1986-1998
Жанр: Rock
Год выпуска диска: 1986-1998
Производитель диска: Австралия
Аудио кодек: FLAC
Тип рипа: tracks
Битрейт аудио: lossless
Продолжительность: указана отдельно к каждому альбому
#777Жанр: Rock
Год выпуска диска: 1986
Производитель диска: Австралия
Аудио кодек: FLAC
Тип рипа: tracks
Битрейт аудио: lossless
Продолжительность: 53 мин 18 сек
Трэклист:
1/13. Say Goodbye {3:51}
2/13. Throw Your Arms Around Me {3:53}
3/13. Dog {3:41}
4/13. Everything's on Fire {4:28}
5/13. Relief {5:08}
6/13. The Finger {4:28}
7/13. 99th Home Position {2:39}
8/13. Is There Anybody in There? {3:26}
9/13. Stuck on You {3:13}
10/13. This Morning {6:42}
11/13. Living Daylight {3:15}
12/13. Inside a Fireball {4:06}
13/13. January Rain {4:28}
AUDIOCHECKER v2.0 beta (build 457) - by Dester - opdester@freemail.hu
~~~~~~~~~~~~~~~~~~~~~~~~~~~~~~~~~~
Started at: понедельник, 22. 03. 2010. - 11:59.28
13 files found
01 -===- C:\- Hunters and Collectors -\Hunters and Collectors - 7 Albums 1981-1998\1986 - Human Frailty\01 - Say Goodbye.flac
Extracted successfully
Conclusion: this track is CDDA with probability 100%
Tempfile successfully deleted.
02 -===- C:\- Hunters and Collectors -\Hunters and Collectors - 7 Albums 1981-1998\1986 - Human Frailty\02 - Throw Your Arms Around Me.flac
Extracted successfully
Conclusion: this track is CDDA with probability 100%
Tempfile successfully deleted.
03 -===- C:\- Hunters and Collectors -\Hunters and Collectors - 7 Albums 1981-1998\1986 - Human Frailty\03 - Dog.flac
Extracted successfully
Conclusion: this track is CDDA with probability 100%
Tempfile successfully deleted.
04 -===- C:\- Hunters and Collectors -\Hunters and Collectors - 7 Albums 1981-1998\1986 - Human Frailty\04 - Everything's on Fire.flac
Extracted successfully
Conclusion: this track is CDDA with probability 100%
Tempfile successfully deleted.
05 -===- C:\- Hunters and Collectors -\Hunters and Collectors - 7 Albums 1981-1998\1986 - Human Frailty\05 - Relief.flac
Extracted successfully
Conclusion: this track is CDDA with probability 100%
Tempfile successfully deleted.
06 -===- C:\- Hunters and Collectors -\Hunters and Collectors - 7 Albums 1981-1998\1986 - Human Frailty\06 - The Finger.flac
Extracted successfully
Conclusion: this track is CDDA with probability 100%
Tempfile successfully deleted.
07 -===- C:\- Hunters and Collectors -\Hunters and Collectors - 7 Albums 1981-1998\1986 - Human Frailty\07 - 99th Home Position.flac
Extracted successfully
Conclusion: this track is MPEG with probability 95%
Tempfile successfully deleted.
08 -===- C:\- Hunters and Collectors -\Hunters and Collectors - 7 Albums 1981-1998\1986 - Human Frailty\08 - Is There Anybody in There.flac
Extracted successfully
Conclusion: this track is CDDA with probability 100%
Tempfile successfully deleted.
09 -===- C:\- Hunters and Collectors -\Hunters and Collectors - 7 Albums 1981-1998\1986 - Human Frailty\09 - Stuck on You.flac
Extracted successfully
Conclusion: this track is CDDA with probability 100%
Tempfile successfully deleted.
10 -===- C:\- Hunters and Collectors -\Hunters and Collectors - 7 Albums 1981-1998\1986 - Human Frailty\10 - This Morning.flac
Extracted successfully
Conclusion: this track is CDDA with probability 100%
Tempfile successfully deleted.
11 -===- C:\- Hunters and Collectors -\Hunters and Collectors - 7 Albums 1981-1998\1986 - Human Frailty\11 - Living Daylight.flac
Extracted successfully
Conclusion: this track is CDDA with probability 100%
Tempfile successfully deleted.
12 -===- C:\- Hunters and Collectors -\Hunters and Collectors - 7 Albums 1981-1998\1986 - Human Frailty\12 - Inside a Fireball.flac
Extracted successfully
Conclusion: this track is CDDA with probability 99%
Tempfile successfully deleted.
13 -===- C:\- Hunters and Collectors -\Hunters and Collectors - 7 Albums 1981-1998\1986 - Human Frailty\13 - January Rain.flac
Extracted successfully
Conclusion: this track is CDDA with probability 100%
Tempfile successfully deleted.
This album (1986 - Human Frailty) seems to be CDDA with probability 92,62%
Finished at: понедельник, 22. 03. 2010. - 12:08.39 (operation time: 0:09.11)
Доп. информация: Discogs
#777Жанр: Rock
Год выпуска диска: 1990
Производитель диска: Австралия
Аудио кодек: FLAC
Тип рипа: tracks
Битрейт аудио: lossless
Продолжительность: 15 мин 19 сек
Трэклист:
01. When the River Runs Dry (single) {3:37}
02. The Price of Freedom {3:20}
03. Two Roads {3:22}
04. When the River Runs Dry (LP Version) {5:01}
AUDIOCHECKER v2.0 beta (build 457) - by Dester - opdester@freemail.hu
-----------------------------------------------------------
Started at: воскресенье 26. 04. 2009. - 0:26.08
4 files found
1 -===- E:\- music -\Hunters and Collectors - 2 альбома 1 ЕР 1988-1990\1990 - When the River Runs Dry (single)\01. When the River Runs Dry (single).flac
Extracted successfully
Conclusion: this track is CDDA with probability 100%
Tempfile successfully deleted.
2 -===- E:\- music -\Hunters and Collectors - 2 альбома 1 ЕР 1988-1990\1990 - When the River Runs Dry (single)\02. The Price of Freedom.flac
Extracted successfully
Conclusion: this track is CDDA with probability 100%
Tempfile successfully deleted.
3 -===- E:\- music -\Hunters and Collectors - 2 альбома 1 ЕР 1988-1990\1990 - When the River Runs Dry (single)\03. Two Roads.flac
Extracted successfully
Conclusion: this track is CDDA with probability 99%
Tempfile successfully deleted.
4 -===- E:\- music -\Hunters and Collectors - 2 альбома 1 ЕР 1988-1990\1990 - When the River Runs Dry (single)\04. When the River Runs Dry (LP Version).flac
Extracted successfully
Conclusion: this track is CDDA with probability 99%
Tempfile successfully deleted.
This album (1990 - When the River Runs Dry (single)) seems to be CDDA with probability 99,50%
Finished at: воскресенье, 26. 04. 2009. - 0:29.02 (operation time: 0:02.53)
Доп. информация: Discogs
#777Жанр: Folk-Rock
Год выпуска диска: 1998
Производитель диска: Австралия
Аудио кодек: FLAC
Тип рипа: tracks+.cue
Битрейт аудио: lossless
Продолжительность: 1 час 18 мин 39 сек
Трэклист:
01. Where Do You Go? {4:47}
02. Turn A Blind Eye {4:45}
03 Head Above Water {?}
04. What's A Few Men? {3:51}
05. Talking To A Stranger {4:53}
06. 42 Wheels {3:50}
07. Back In The Hole {4:22}
08 True Tears Of Joy {?}
09. When The River Runs Dry {5:59}
10. True Believers {4:19}
11. Say GoodBye {5:10}
12. Holy Grail {3:52}
13. The Slab {5:18}
14. Throw Your Arms Around Me {5:16}
15. Inside A Fireball {5:22}
16. Stuck On You {3:35}
17. Do You See What I See? {4:58}
Код:
Exact Audio Copy V0.99 prebeta 4 from 23. January 2008
EAC extraction logfile from 3. April 2009, 20:15
Hunters & Collectors / Under One Roof
Used drive  : SlimtypeDVD A  DS8A2S   Adapter: 1  ID: 0
Read mode               : Secure
Utilize accurate stream : Yes
Defeat audio cache      : No
Make use of C2 pointers : No
Read offset correction                      : 6
Overread into Lead-In and Lead-Out          : No
Fill up missing offset samples with silence : Yes
Delete leading and trailing silent blocks   : No
Null samples used in CRC calculations       : No
Used interface                              : Native Win32 interface for Win NT & 2000
Gap handling                                : Appended to previous track
Used output format              : User Defined Encoder
Selected bitrate                : 320 kBit/s
Quality                         : High
Add ID3 tag                     : No
Command line compressor         : C:\Program Files\Exact Audio Copy\Flac\flac.exe
Additional command line options : -8 -T "artist=%a" -T "title=%t" -T "album=%g" -T "date=%y" -T "tracknumber=%n" -T "genre=%m" %s
TOC of the extracted CD
     Track |   Start  |  Length  | Start sector | End sector
    ---------------------------------------------------------
        1  |  0:00.00 |  4:47.15 |         0    |    21539
        2  |  4:47.15 |  4:44.55 |     21540    |    42894
        3  |  9:31.70 |  3:52.47 |     42895    |    60341
        4  | 13:24.42 |  3:50.58 |     60342    |    77649
        5  | 17:15.25 |  4:52.50 |     77650    |    99599
        6  | 22:08.00 |  3:49.67 |     99600    |   116841
        7  | 25:57.67 |  4:21.65 |    116842    |   136481
        8  | 30:19.57 |  4:30.20 |    136482    |   156751
        9  | 34:50.02 |  5:59.28 |    156752    |   183704
       10  | 40:49.30 |  4:19.37 |    183705    |   203166
       11  | 45:08.67 |  5:10.05 |    203167    |   226421
       12  | 50:18.72 |  3:52.18 |    226422    |   243839
       13  | 54:11.15 |  5:18.17 |    243840    |   267706
       14  | 59:29.32 |  5:16.13 |    267707    |   291419
       15  | 64:45.45 |  5:21.42 |    291420    |   315536
       16  | 70:07.12 |  3:34.48 |    315537    |   331634
       17  | 73:41.60 |  4:58.07 |    331635    |   353991
Track  1
     Filename D:\sys\Music ripped\Hunters & Collectors\Under One Roof\01 Where Do You Go .wav
     Pre-gap length  0:00:02.00
     Peak level 100.0 %
     Track quality 99.9 %
     Copy CRC 8787B52F
     Accurately ripped (confidence 4)  [1E756459]
     Copy OK
Track  2
     Filename D:\sys\Music ripped\Hunters & Collectors\Under One Roof\02 Turn A Blind Eye.wav
     Peak level 99.9 %
     Track quality 100.0 %
     Copy CRC B5522DCF
     Accurately ripped (confidence 4)  [67057679]
     Copy OK
Track  3
     Filename D:\sys\Music ripped\Hunters & Collectors\Under One Roof\03 Head Above Water.wav
     Peak level 100.0 %
     Track quality 100.0 %
     Copy CRC B763AFED
     Accurately ripped (confidence 4)  [49933C62]
     Copy OK
Track  4
     Filename D:\sys\Music ripped\Hunters & Collectors\Under One Roof\04 What's A Few Men .wav
     Peak level 99.9 %
     Track quality 99.9 %
     Copy CRC 76D23A9E
     Accurately ripped (confidence 4)  [E84BB42F]
     Copy OK
Track  5
     Filename D:\sys\Music ripped\Hunters & Collectors\Under One Roof\05 Talking To A Stranger.wav
     Peak level 100.0 %
     Track quality 100.0 %
     Copy CRC 1B27C968
     Accurately ripped (confidence 4)  [4006F10E]
     Copy OK
Track  6
     Filename D:\sys\Music ripped\Hunters & Collectors\Under One Roof\06 42 Wheels.wav
     Peak level 100.0 %
     Track quality 100.0 %
     Copy CRC DE701C21
     Accurately ripped (confidence 4)  [AC28E6E0]
     Copy OK
Track  7
     Filename D:\sys\Music ripped\Hunters & Collectors\Under One Roof\07 Back In The Hole.wav
     Peak level 100.0 %
     Track quality 100.0 %
     Copy CRC F6F1F853
     Accurately ripped (confidence 4)  [66CD7A61]
     Copy OK
Track  8
     Filename D:\sys\Music ripped\Hunters & Collectors\Under One Roof\08 True Tears Of Joy.wav
     Peak level 99.9 %
     Track quality 100.0 %
     Copy CRC C78C4B36
     Accurately ripped (confidence 4)  [819C24D2]
     Copy OK
Track  9
     Filename D:\sys\Music ripped\Hunters & Collectors\Under One Roof\09 When The River Runs Dry.wav
     Peak level 100.0 %
     Track quality 100.0 %
     Copy CRC B139F593
     Accurately ripped (confidence 4)  [E67D70E0]
     Copy OK
Track 10
     Filename D:\sys\Music ripped\Hunters & Collectors\Under One Roof\10 True Believers.wav
     Peak level 99.9 %
     Track quality 100.0 %
     Copy CRC 11962636
     Accurately ripped (confidence 4)  [A065B6BF]
     Copy OK
Track 11
     Filename D:\sys\Music ripped\Hunters & Collectors\Under One Roof\11 Say GoodBye.wav
     Peak level 100.0 %
     Track quality 100.0 %
     Copy CRC 3E076861
     Accurately ripped (confidence 4)  [CD341EE9]
     Copy OK
Track 12
     Filename D:\sys\Music ripped\Hunters & Collectors\Under One Roof\12 Holy Grail.wav
     Peak level 100.0 %
     Track quality 100.0 %
     Copy CRC EEFD3612
     Accurately ripped (confidence 4)  [B75CCEE2]
     Copy OK
Track 13
     Filename D:\sys\Music ripped\Hunters & Collectors\Under One Roof\13 The Slab.wav
     Peak level 100.0 %
     Track quality 100.0 %
     Copy CRC D2698305
     Accurately ripped (confidence 4)  [F49D635E]
     Copy OK
Track 14
     Filename D:\sys\Music ripped\Hunters & Collectors\Under One Roof\14 Throw Your Arms Around Me.wav
     Peak level 99.9 %
     Track quality 100.0 %
     Copy CRC 83E7CEDC
     Accurately ripped (confidence 4)  [4D42D36B]
     Copy OK
Track 15
     Filename D:\sys\Music ripped\Hunters & Collectors\Under One Roof\15 Inside A Fireball.wav
     Peak level 100.0 %
     Track quality 100.0 %
     Copy CRC 5A81F862
     Accurately ripped (confidence 4)  [9801F718]
     Copy OK
Track 16
     Filename D:\sys\Music ripped\Hunters & Collectors\Under One Roof\16 Stuck On You.wav
     Peak level 100.0 %
     Track quality 100.0 %
     Copy CRC 664A93B4
     Accurately ripped (confidence 4)  [A1EFD3BA]
     Copy OK
Track 17
     Filename D:\sys\Music ripped\Hunters & Collectors\Under One Roof\17 Do You See What I See .wav
     Peak level 100.0 %
     Track quality 100.0 %
     Copy CRC F2655346
     Accurately ripped (confidence 2)  [4A158643]
     Copy OK
All tracks accurately ripped
No errors occurred
End of status report
AUDIOCHECKER v2.0 beta (build 457) - by Dester - opdester@freemail.hu
~~~~~~~~~~~~~~~~~~~~~~~~~~~~~~~~~~
Started at: понедельник, 22. 03. 2010. - 19:59.51
17 files found
01 -===- C:\- раздаю -\Hunters and Collectors - 5 Albums 1 single 1981-1998\1998 - Under One Roof (live)\01 Where Do You Go .flac
Extracted successfully
Conclusion: this track is CDDA with probability 100%
Tempfile successfully deleted.
02 -===- C:\- раздаю -\Hunters and Collectors - 5 Albums 1 single 1981-1998\1998 - Under One Roof (live)\02 Turn A Blind Eye.flac
Extracted successfully
Conclusion: this track is CDDA with probability 100%
Tempfile successfully deleted.
03 -===- C:\- раздаю -\Hunters and Collectors - 5 Albums 1 single 1981-1998\1998 - Under One Roof (live)\03 Head Above Water.flac
Extracted successfully
Conclusion: this track is CDDA with probability 100%
Tempfile successfully deleted.
04 -===- C:\- раздаю -\Hunters and Collectors - 5 Albums 1 single 1981-1998\1998 - Under One Roof (live)\04 What's A Few Men .flac
Extracted successfully
Conclusion: this track is CDDA with probability 100%
Tempfile successfully deleted.
05 -===- C:\- раздаю -\Hunters and Collectors - 5 Albums 1 single 1981-1998\1998 - Under One Roof (live)\05 Talking To A Stranger.flac
Extracted successfully
Conclusion: this track is CDDA with probability 100%
Tempfile successfully deleted.
06 -===- C:\- раздаю -\Hunters and Collectors - 5 Albums 1 single 1981-1998\1998 - Under One Roof (live)\06 42 Wheels.flac
Extracted successfully
Conclusion: this track is CDDA with probability 100%
Tempfile successfully deleted.
07 -===- C:\- раздаю -\Hunters and Collectors - 5 Albums 1 single 1981-1998\1998 - Under One Roof (live)\07 Back In The Hole.flac
Extracted successfully
Conclusion: this track is CDDA with probability 100%
Tempfile successfully deleted.
08 -===- C:\- раздаю -\Hunters and Collectors - 5 Albums 1 single 1981-1998\1998 - Under One Roof (live)\08 True Tears Of Joy.flac
Extracted successfully
Conclusion: this track is CDDA with probability 100%
Tempfile successfully deleted.
09 -===- C:\- раздаю -\Hunters and Collectors - 5 Albums 1 single 1981-1998\1998 - Under One Roof (live)\09 When The River Runs Dry.flac
Extracted successfully
Conclusion: this track is CDDA with probability 100%
Tempfile successfully deleted.
10 -===- C:\- раздаю -\Hunters and Collectors - 5 Albums 1 single 1981-1998\1998 - Under One Roof (live)\10 True Believers.flac
Extracted successfully
Conclusion: this track is CDDA with probability 100%
Tempfile successfully deleted.
11 -===- C:\- раздаю -\Hunters and Collectors - 5 Albums 1 single 1981-1998\1998 - Under One Roof (live)\11 Say GoodBye.flac
Extracted successfully
Conclusion: this track is CDDA with probability 100%
Tempfile successfully deleted.
12 -===- C:\- раздаю -\Hunters and Collectors - 5 Albums 1 single 1981-1998\1998 - Under One Roof (live)\12 Holy Grail.flac
Extracted successfully
Conclusion: this track is CDDA with probability 100%
Tempfile successfully deleted.
13 -===- C:\- раздаю -\Hunters and Collectors - 5 Albums 1 single 1981-1998\1998 - Under One Roof (live)\13 The Slab.flac
Extracted successfully
Conclusion: this track is CDDA with probability 100%
Tempfile successfully deleted.
14 -===- C:\- раздаю -\Hunters and Collectors - 5 Albums 1 single 1981-1998\1998 - Under One Roof (live)\14 Throw Your Arms Around Me.flac
Extracted successfully
Conclusion: this track is CDDA with probability 100%
Tempfile successfully deleted.
15 -===- C:\- раздаю -\Hunters and Collectors - 5 Albums 1 single 1981-1998\1998 - Under One Roof (live)\15 Inside A Fireball.flac
Extracted successfully
Conclusion: this track is CDDA with probability 100%
Tempfile successfully deleted.
16 -===- C:\- раздаю -\Hunters and Collectors - 5 Albums 1 single 1981-1998\1998 - Under One Roof (live)\16 Stuck On You.flac
Extracted successfully
Conclusion: this track is CDDA with probability 100%
Tempfile successfully deleted.
17 -===- C:\- раздаю -\Hunters and Collectors - 5 Albums 1 single 1981-1998\1998 - Under One Roof (live)\17 Do You See What I See .flac
Extracted successfully
Conclusion: this track is CDDA with probability 100%
Tempfile successfully deleted.
This album (1998 - Under One Roof (live)) seems to be CDDA with probability 100,00%
Finished at: понедельник, 22. 03. 2010. - 20:15.14 (operation time: 0:15.22)
Код:
REM GENRE Rock
REM DATE 1998
REM DISCID DF126F11
REM COMMENT "ExactAudioCopy v0.99pb4"
PERFORMER "Hunters & Collectors"
TITLE "Under One Roof"
FILE "Hunters & Collectors\Under One Roof\01 Where Do You Go .wav" WAVE
  TRACK 01 AUDIO
    TITLE "Where Do You Go?"
    PERFORMER "Hunters & Collectors"
    INDEX 01 00:00:00
FILE "Hunters & Collectors\Under One Roof\02 Turn A Blind Eye.wav" WAVE
  TRACK 02 AUDIO
    TITLE "Turn A Blind Eye"
    PERFORMER "Hunters & Collectors"
    INDEX 01 00:00:00
FILE "Hunters & Collectors\Under One Roof\03 Head Above Water.wav" WAVE
  TRACK 03 AUDIO
    TITLE "Head Above Water"
    PERFORMER "Hunters & Collectors"
    INDEX 01 00:00:00
FILE "Hunters & Collectors\Under One Roof\04 What's A Few Men .wav" WAVE
  TRACK 04 AUDIO
    TITLE "What's A Few Men?"
    PERFORMER "Hunters & Collectors"
    INDEX 01 00:00:00
FILE "Hunters & Collectors\Under One Roof\05 Talking To A Stranger.wav" WAVE
  TRACK 05 AUDIO
    TITLE "Talking To A Stranger"
    PERFORMER "Hunters & Collectors"
    INDEX 01 00:00:00
FILE "Hunters & Collectors\Under One Roof\06 42 Wheels.wav" WAVE
  TRACK 06 AUDIO
    TITLE "42 Wheels"
    PERFORMER "Hunters & Collectors"
    INDEX 01 00:00:00
FILE "Hunters & Collectors\Under One Roof\07 Back In The Hole.wav" WAVE
  TRACK 07 AUDIO
    TITLE "Back In The Hole"
    PERFORMER "Hunters & Collectors"
    INDEX 01 00:00:00
FILE "Hunters & Collectors\Under One Roof\08 True Tears Of Joy.wav" WAVE
  TRACK 08 AUDIO
    TITLE "True Tears Of Joy"
    PERFORMER "Hunters & Collectors"
    INDEX 01 00:00:00
FILE "Hunters & Collectors\Under One Roof\09 When The River Runs Dry.wav" WAVE
  TRACK 09 AUDIO
    TITLE "When The River Runs Dry"
    PERFORMER "Hunters & Collectors"
    INDEX 01 00:00:00
FILE "Hunters & Collectors\Under One Roof\10 True Believers.wav" WAVE
  TRACK 10 AUDIO
    TITLE "True Believers"
    PERFORMER "Hunters & Collectors"
    INDEX 01 00:00:00
FILE "Hunters & Collectors\Under One Roof\11 Say GoodBye.wav" WAVE
  TRACK 11 AUDIO
    TITLE "Say GoodBye"
    PERFORMER "Hunters & Collectors"
    INDEX 01 00:00:00
FILE "Hunters & Collectors\Under One Roof\12 Holy Grail.wav" WAVE
  TRACK 12 AUDIO
    TITLE "Holy Grail"
    PERFORMER "Hunters & Collectors"
    INDEX 01 00:00:00
FILE "Hunters & Collectors\Under One Roof\13 The Slab.wav" WAVE
  TRACK 13 AUDIO
    TITLE "The Slab"
    PERFORMER "Hunters & Collectors"
    INDEX 01 00:00:00
FILE "Hunters & Collectors\Under One Roof\14 Throw Your Arms Around Me.wav" WAVE
  TRACK 14 AUDIO
    TITLE "Throw Your Arms Around Me"
    PERFORMER "Hunters & Collectors"
    INDEX 01 00:00:00
FILE "Hunters & Collectors\Under One Roof\15 Inside A Fireball.wav" WAVE
  TRACK 15 AUDIO
    TITLE "Inside A Fireball"
    PERFORMER "Hunters & Collectors"
    INDEX 01 00:00:00
FILE "Hunters & Collectors\Under One Roof\16 Stuck On You.wav" WAVE
  TRACK 16 AUDIO
    TITLE "Stuck On You"
    PERFORMER "Hunters & Collectors"
    INDEX 01 00:00:00
FILE "Hunters & Collectors\Under One Roof\17 Do You See What I See .wav" WAVE
  TRACK 17 AUDIO
    TITLE "Do You See What I See?"
    PERFORMER "Hunters & Collectors"
    INDEX 01 00:00:00
Доп. информация: Discogs
Доп. информация: Лицевые коврики вшиты. Источник - Н33Т, релизёр Kitlope
Правила, инструкции, FAQ!!!
Торрент  Добавлен [26 мар 2019, 20:44] Скачать торрент Магнет ссылка
Скачать торрент
[ Размер 24.18 КБ / Просмотров 9 ]

Статус
Проверен 
 
Размер  1017.8 МБ
Приватный: Нет (DHT включён)
.torrent скачан  0
 


     Отправить личное сообщение
   
Страница 1 из 1
Показать сообщения за:  Поле сортировки  
Начать новую тему Ответить на тему


Сейчас этот форум просматривают: нет зарегистрированных пользователей и гости: 0


Вы не можете начинать темы
Вы не можете отвечать на сообщения
Вы не можете редактировать свои сообщения
Вы не можете удалять свои сообщения
Вы не можете добавлять вложения

Перейти:  
cron