Начать новую тему Ответить на тему
Статистика раздачи
Размер: 157.75 МБ | Добавлен: 02 авг 2020, 20:40 | Скачали: 1
Сидеров: 6  [0 байт/сек]    Личеров: 0  [0 байт/сек]
Пред. тема | След. тема 

Автор
Сообщение

СообщениеДобавлено: 02 авг 2020, 20:40 

Ответить с цитатой 

Hanni El Khatib / Flight
Жанр: Rock
Носитель: CD
Страна-производитель диска (релиза): US
Год издания: 2020
Издатель (лейбл): Innovative Leisure
Номер по каталогу: BEC5650770
Страна исполнителя (группы): US
Аудиокодек: FLAC (*.flac)
Тип рипа: tracks+.cue
Продолжительность: 00:31:06
Источник: интернет (RED)
Наличие сканов в содержимом раздачи: нет
Треклист:
01. Carry [01:41]
02. Glassy [01:07]
03. Alive[02:55]
04. Colors [01:11]
05. Stressy [02:52]
06. Room [03:25]
07. Leader [03:30]
08. Gem [02:28]
09. Harlow [02:13]
10. Dumb[01:57]
11. How [03:28]
12. Detroit [01:54]
13. Peace [02:25]
Код:
Exact Audio Copy V1.5 from 20. February 2020
EAC extraction logfile from 23. July 2020, 5:25
Hanni El Khatib / Flight
Used drive  : SONY    CDRWDVD CRX850E   Adapter: 1  ID: 0
Read mode               : Secure
Utilize accurate stream : Yes
Defeat audio cache      : Yes
Make use of C2 pointers : No
Read offset correction                      : 6
Overread into Lead-In and Lead-Out          : No
Fill up missing offset samples with silence : Yes
Delete leading and trailing silent blocks   : No
Null samples used in CRC calculations       : Yes
Used interface                              : Native Win32 interface for Win NT & 2000
Gap handling                                : Appended to previous track
Used output format              : User Defined Encoder
Selected bitrate                : 1024 kBit/s
Quality                         : High
Add ID3 tag                     : No
Command line compressor         : C:\Program Files (x86)\Exact Audio Copy\Flac\flac.exe
Additional command line options : -8 -V -T "ARTIST=%artist%" -T "TITLE=%title%" -T "ALBUM=%albumtitle%" -T "DATE=%year%" -T "TRACKNUMBER=%tracknr%" -T "GENRE=%genre%" -T "PERFORMER=%albuminterpret%" -T "COMPOSER=%composer%" %haslyrics%--tag-from-file=LYRICS="%lyricsfile%"%haslyrics% -T "ALBUMARTIST=%albumartist%" -T "DISCNUMBER=%cdnumber%" -T "TOTALDISCS=%totalcds%" -T "TOTALTRACKS=%numtracks%" -T "COMMENT=%comment%" %source% -o %dest%
TOC of the extracted CD
     Track |   Start  |  Length  | Start sector | End sector
    ---------------------------------------------------------
        1  |  0:00.00 |  1:41.23 |         0    |     7597
        2  |  1:41.23 |  1:07.10 |      7598    |    12632
        3  |  2:48.33 |  2:55.24 |     12633    |    25781
        4  |  5:43.57 |  1:11.69 |     25782    |    31175
        5  |  6:55.51 |  2:52.38 |     31176    |    44113
        6  |  9:48.14 |  3:25.27 |     44114    |    59515
        7  | 13:13.41 |  3:30.63 |     59516    |    75328
        8  | 16:44.29 |  2:28.29 |     75329    |    86457
        9  | 19:12.58 |  2:13.03 |     86458    |    96435
       10  | 21:25.61 |  1:57.03 |     96436    |   105213
       11  | 23:22.64 |  3:28.32 |    105214    |   120845
       12  | 26:51.21 |  1:54.27 |    120846    |   129422
       13  | 28:45.48 |  2:25.48 |    129423    |   140345
Track  1
     Filename C:\rip\Hanni El Khatib - Flight (2020) [FLAC]\01 - Carry.wav
     Pre-gap length  0:00:02.00
     Peak level 96.9 %
     Extraction speed 0.9 X
     Track quality 100.0 %
     Test CRC 93468A94
     Copy CRC 93468A94
     Track not present in AccurateRip database
     Copy OK
Track  2
     Filename C:\rip\Hanni El Khatib - Flight (2020) [FLAC]\02 - Glassy.wav
     Peak level 96.0 %
     Extraction speed 0.9 X
     Track quality 100.0 %
     Test CRC 7CE591E4
     Copy CRC 7CE591E4
     Track not present in AccurateRip database
     Copy OK
Track  3
     Filename C:\rip\Hanni El Khatib - Flight (2020) [FLAC]\03 - Alive.wav
     Peak level 96.6 %
     Extraction speed 1.2 X
     Track quality 100.0 %
     Test CRC CAA55B4A
     Copy CRC CAA55B4A
     Track not present in AccurateRip database
     Copy OK
Track  4
     Filename C:\rip\Hanni El Khatib - Flight (2020) [FLAC]\04 - Colors.wav
     Peak level 96.6 %
     Extraction speed 1.0 X
     Track quality 100.0 %
     Test CRC 61293208
     Copy CRC 61293208
     Track not present in AccurateRip database
     Copy OK
Track  5
     Filename C:\rip\Hanni El Khatib - Flight (2020) [FLAC]\05 - Stressy.wav
     Peak level 96.6 %
     Extraction speed 1.3 X
     Track quality 100.0 %
     Test CRC A6A97ACC
     Copy CRC A6A97ACC
     Track not present in AccurateRip database
     Copy OK
Track  6
     Filename C:\rip\Hanni El Khatib - Flight (2020) [FLAC]\06 - Room.wav
     Peak level 96.6 %
     Extraction speed 1.5 X
     Track quality 100.0 %
     Test CRC F00983A2
     Copy CRC F00983A2
     Track not present in AccurateRip database
     Copy OK
Track  7
     Filename C:\rip\Hanni El Khatib - Flight (2020) [FLAC]\07 - Leader.wav
     Peak level 96.6 %
     Extraction speed 1.4 X
     Track quality 99.9 %
     Test CRC EB54DF9E
     Copy CRC EB54DF9E
     Track not present in AccurateRip database
     Copy OK
Track  8
     Filename C:\rip\Hanni El Khatib - Flight (2020) [FLAC]\08 - Gem.wav
     Peak level 96.6 %
     Extraction speed 1.3 X
     Track quality 99.9 %
     Test CRC 47ADC010
     Copy CRC 47ADC010
     Track not present in AccurateRip database
     Copy OK
Track  9
     Filename C:\rip\Hanni El Khatib - Flight (2020) [FLAC]\09 - Harlow.wav
     Peak level 96.6 %
     Extraction speed 1.6 X
     Track quality 100.0 %
     Test CRC 191A507B
     Copy CRC 191A507B
     Track not present in AccurateRip database
     Copy OK
Track 10
     Filename C:\rip\Hanni El Khatib - Flight (2020) [FLAC]\10 - Dumb.wav
     Peak level 96.6 %
     Extraction speed 1.6 X
     Track quality 100.0 %
     Test CRC C9181FDB
     Copy CRC C9181FDB
     Track not present in AccurateRip database
     Copy OK
Track 11
     Filename C:\rip\Hanni El Khatib - Flight (2020) [FLAC]\11 - How.wav
     Peak level 96.6 %
     Extraction speed 1.8 X
     Track quality 100.0 %
     Test CRC 4408BBE4
     Copy CRC 4408BBE4
     Track not present in AccurateRip database
     Copy OK
Track 12
     Filename C:\rip\Hanni El Khatib - Flight (2020) [FLAC]\12 - Detroit.wav
     Peak level 96.6 %
     Extraction speed 1.6 X
     Track quality 100.0 %
     Test CRC AE3C8D48
     Copy CRC AE3C8D48
     Track not present in AccurateRip database
     Copy OK
Track 13
     Filename C:\rip\Hanni El Khatib - Flight (2020) [FLAC]\13 - Peace.wav
     Peak level 96.6 %
     Extraction speed 1.8 X
     Track quality 100.0 %
     Test CRC A30C87AF
     Copy CRC A30C87AF
     Track not present in AccurateRip database
     Copy OK
None of the tracks are present in the AccurateRip database
No errors occurred
End of status report
---- CUETools DB Plugin V2.1.6
[CTDB TOCID: Neg6eqEMJW2j3fFdzJJgT818cOY-] found
Submit result: Neg6eqEMJW2j3fFdzJJgT818cOY- has been confirmed
Track | CTDB Status
  1   | (4/4) Accurately ripped
  2   | (4/4) Accurately ripped
  3   | (4/4) Accurately ripped
  4   | (4/4) Accurately ripped
  5   | (4/4) Accurately ripped
  6   | (4/4) Accurately ripped
  7   | (4/4) Accurately ripped
  8   | (4/4) Accurately ripped
  9   | (4/4) Accurately ripped
 10   | (4/4) Accurately ripped
 11   | (4/4) Accurately ripped
 12   | (4/4) Accurately ripped
 13   | (4/4) Accurately ripped
==== Log checksum 9C1F1D420241DCC430CF800D996A85CFD410BB04E40DF30DB31F2DE70BACBA36 ====
Код:
REM GENRE Rock
REM DATE 2020
REM DISCID 92074F0D
REM COMMENT "ExactAudioCopy v1.5"
PERFORMER "Hanni El Khatib"
TITLE "Flight"
REM COMPOSER ""
FILE "01 - Carry.wav" WAVE
  TRACK 01 AUDIO
    TITLE "Carry"
    PERFORMER "Hanni El Khatib"
    REM COMPOSER ""
    ISRC USD8D2065001
    FLAGS DCP
    INDEX 01 00:00:00
FILE "02 - Glassy.wav" WAVE
  TRACK 02 AUDIO
    TITLE "Glassy"
    PERFORMER "Hanni El Khatib"
    REM COMPOSER ""
    ISRC USD8D2065002
    FLAGS DCP
    INDEX 01 00:00:00
FILE "03 - Alive.wav" WAVE
  TRACK 03 AUDIO
    TITLE "Alive"
    PERFORMER "Hanni El Khatib"
    REM COMPOSER ""
    ISRC USD8D2065003
    FLAGS DCP
    INDEX 01 00:00:00
FILE "04 - Colors.wav" WAVE
  TRACK 04 AUDIO
    TITLE "Colors"
    PERFORMER "Hanni El Khatib"
    REM COMPOSER ""
    ISRC USD8D2065004
    FLAGS DCP
    INDEX 01 00:00:00
FILE "05 - Stressy.wav" WAVE
  TRACK 05 AUDIO
    TITLE "Stressy"
    PERFORMER "Hanni El Khatib"
    REM COMPOSER ""
    ISRC USD8D2065005
    FLAGS DCP
    INDEX 01 00:00:00
FILE "06 - Room.wav" WAVE
  TRACK 06 AUDIO
    TITLE "Room"
    PERFORMER "Hanni El Khatib"
    REM COMPOSER ""
    ISRC USD8D2065006
    FLAGS DCP
    INDEX 01 00:00:00
FILE "07 - Leader.wav" WAVE
  TRACK 07 AUDIO
    TITLE "Leader"
    PERFORMER "Hanni El Khatib"
    REM COMPOSER ""
    ISRC USD8D2065007
    FLAGS DCP
    INDEX 01 00:00:00
FILE "08 - Gem.wav" WAVE
  TRACK 08 AUDIO
    TITLE "Gem"
    PERFORMER "Hanni El Khatib"
    REM COMPOSER ""
    ISRC USD8D2065008
    FLAGS DCP
    INDEX 01 00:00:00
FILE "09 - Harlow.wav" WAVE
  TRACK 09 AUDIO
    TITLE "Harlow"
    PERFORMER "Hanni El Khatib"
    REM COMPOSER ""
    ISRC USD8D2065009
    FLAGS DCP
    INDEX 01 00:00:00
FILE "10 - Dumb.wav" WAVE
  TRACK 10 AUDIO
    TITLE "Dumb"
    PERFORMER "Hanni El Khatib"
    REM COMPOSER ""
    ISRC USD8D2065010
    FLAGS DCP
    INDEX 01 00:00:00
FILE "11 - How.wav" WAVE
  TRACK 11 AUDIO
    TITLE "How"
    PERFORMER "Hanni El Khatib"
    REM COMPOSER ""
    ISRC USD8D2065011
    FLAGS DCP
    INDEX 01 00:00:00
FILE "12 - Detroit.wav" WAVE
  TRACK 12 AUDIO
    TITLE "Detroit"
    PERFORMER "Hanni El Khatib"
    REM COMPOSER ""
    ISRC USD8D2065012
    FLAGS DCP
    INDEX 01 00:00:00
FILE "13 - Peace.wav" WAVE
  TRACK 13 AUDIO
    TITLE "Peace"
    PERFORMER "Hanni El Khatib"
    REM COMPOSER ""
    ISRC USD8D2065013
    FLAGS DCP
    INDEX 01 00:00:00
Правила, инструкции, FAQ!!!
Торрент  Добавлен [02 авг 2020, 20:40] Скачать торрент Магнет ссылка
Скачать торрент
[ Размер 25.89 КБ / Просмотров 4 ]

Статус
Проверен 
 
Размер  157.75 МБ
Приватный: Нет (DHT включён)
.torrent скачан  1
 


     Отправить личное сообщение
   
Страница 1 из 1
Показать сообщения за:  Поле сортировки  
Начать новую тему Ответить на тему


Сейчас этот форум просматривают: нет зарегистрированных пользователей и гости: 0


Вы не можете начинать темы
Вы не можете отвечать на сообщения
Вы не можете редактировать свои сообщения
Вы не можете удалять свои сообщения
Вы не можете добавлять вложения

Перейти:  
cron