Начать новую тему Ответить на тему
Статистика раздачи
Размер: 235.22 МБ | Добавлен: 26 мар 2019, 20:44 | Скачали: 0
Сидеров: 0  [0 байт/сек]    Личеров: 0  [0 байт/сек]
Пред. тема | След. тема 

Автор
Сообщение

СообщениеДобавлено: 26 мар 2019, 20:44 

Ответить с цитатой 

Gianna Nannini - California
Страна: Italy
Жанр: Rock
Год выпуска: 1980
Формат: APE (.ape + .cue)
Битрейт аудио: lossless
Продолжительность: 37:28 min
Трэклист:
01. America (4:25)
02. California (8:16)
03. Goodbye My Heart (6:20)
04. La Lupa E Le Stelle (4:10)
05. Lei (5:45)
06. Me And Bobby McGee (4:41)
07. Sognami (4:04)
Зарелизено на rutracker.org


Доп. информация:
Exact Audio Copy V0.99 prebeta 1 from 25. May 2007
EAC extraction logfile from 3. September 2007, 19:04
Gianna Nannini / California
Used drive : Optiarc DVD RW AD-7173S Adapter: 1 ID: 1
Read mode : Secure
Utilize accurate stream : Yes
Defeat audio cache : Yes
Make use of C2 pointers : No
Read offset correction : 48
Overread into Lead-In and Lead-Out : No
Fill up missing offset samples with silence : Yes
Delete leading and trailing silent blocks : No
Used interface : Installed external ASPI interface
Used output format : Monkey's Audio Lossless Encoder v3.99 DLL
Sample format : High Lossless Compression
Use compression offset : 66
TOC of the extracted CD
Track | Start | Length | Start sector | End sector
---------------------------------------------------------
1 | 0:00.00 | 4:24.48 | 0 | 19847
2 | 4:24.48 | 8:16.30 | 19848 | 57077
3 | 12:41.03 | 6:19.40 | 57078 | 85542
4 | 19:00.43 | 4:10.20 | 85543 | 104312
5 | 23:10.63 | 5:45.02 | 104313 | 130189
6 | 28:55.65 | 4:40.47 | 130190 | 151236
7 | 33:36.37 | 4:03.63 | 151237 | 169524
Range status and errors
Selected range
Filename C:\RIP\Gianna Nannini - California.ape
Peak level 99.0 %
Range quality 99.9 %
Copy CRC 456DA89D
Copy OK
No errors occurred
End of status report
Gianna Nannini родилась 14 июня 1956 года в Siena, Tuscany. Имеет двух братьев Guido и Alessandro. После школы, обучалась игре на фортепиано в «Luigi Boccherini Conservatory». В 1975 году Gianna Nannini покидает родной город и отправляется в Милан, где поступает в университет «University of Milan».
В 1976 году издает свой дебютный альбом «Gianna Nannini», на лэйбле «Dischi Recordi».
В 1979 году Gianna Nannini отправляется в США и после возвращения в 1980 году она выпускает альбом «California».
В 1981 году она записывает саундтрек к кинофильму «Sconcerto Rock», фильм Luciano Mannuzzi.
Год спустя, 16 октября 1982 года Gianna Nannini дает свой легендарный концерт «Rockpalast», со своей новой группой «The Primadonnas».
В 1983 году она дебютирует как актрисса в картине «Sogno di notte d'estate» (Gabriele Salavatores).
В 1984 году выпускает альбом «Puzzle» и отправляется в гастрольный тур по Австралии, Германии и Швейцарии. В этом же году принимает участие в фестивале «Montreux Jazz Festival».
В 1985 году Gianna Nannini и ее группа «The Primadonnas» выпускают первый концертный альбом «Tutto Live».
В сентябре 1986 года выходит очередной альбом «Profumo», включающий в себя хит сингл «Bello e Impossibile».
В 1987 году Gianna Nannini выпускает сборник лучших композиций «Maschi E Altri» и в том же году принимает участие в концерте, проходившим в Гамбурге, совместно со Стингом (ting) и Джеком Брюсом.
В 1988 году выходит альбом «Malafemmina». Со-продюссером альбома был Alan Moulder, известный по работе с Jesus and Mary Chains, Smashing Pumpkins, Nine Inch Nails.
В ноябре 1989 года Gianna Nannini записывает композицию «Un' Estate Italiana» специально для мирового чемпионата по футболу, прошедшего в 1990 году.
В 1990 году Gianna Nannini и Edoardo Bennato на открытии чемпионата по футболу, исполняют композицию «Un' Estate Italiana». В том же году Gianna Nannini выпускает новый альбом «Scandalo». В 1991 году Gianna Nannini продолжает свой гастрольный тур по двеннадцати городам, стартовавший в конце 1990 года, во время тура был записан «живой» альбом «Giannissima».
В 1992 году выходит альбом «Giannissima», выпущенный в Южной Америке в испанской версии нескольких ее песен.
В 1993 году был выпущен альбом «X FORZA e X AMORE», записанный в Кельне и Лондоне.
В 1995 году Gianna Nannini выпускает альбом «Dispetto».
В 1996 году выходит сборник лучших произведений «Bomboloni».
В сентябре 1998 года выходит альбом «Cuore», записанный при участии Fabrizio Barbacci. В Италии достигает платиннового статуса.
В 2000 году Gianna Nannini работать над саундтреком к киноленте «Momo», снятой по роману Michael Ende.
В 2002 году выходит новы альбом Aria.
Ссылки
# Gianna Nannini, muslib.ru (рус.)
Правила, инструкции, FAQ!!!
Торрент  Добавлен [26 мар 2019, 20:44] Скачать торрент Магнет ссылка
Скачать торрент
[ Размер 19.11 КБ / Просмотров 3 ]

Статус
Проверен 
 
Размер  235.22 МБ
Приватный: Нет (DHT включён)
.torrent скачан  0
 


     Отправить личное сообщение
   
Страница 1 из 1
Показать сообщения за:  Поле сортировки  
Начать новую тему Ответить на тему


Сейчас этот форум просматривают: нет зарегистрированных пользователей и гости: 0


Вы не можете начинать темы
Вы не можете отвечать на сообщения
Вы не можете редактировать свои сообщения
Вы не можете удалять свои сообщения
Вы не можете добавлять вложения

Перейти:  
cron