Начать новую тему Ответить на тему
Статистика раздачи
Размер: 244.92 МБ | Добавлен: 26 мар 2019, 18:49 | Скачали: 0
Сидеров: 0  [0 байт/сек]    Личеров: 0  [0 байт/сек]
Пред. тема | След. тема 

Автор
Сообщение

СообщениеДобавлено: 26 мар 2019, 18:49 

Ответить с цитатой 

.
.
JOHN BRANDOLI

Suspended Disbelief.
.
Жанр: Rock, Folk Rock, Pop
Носитель
: CD
Год издания: 2008
Номер по каталогу: MSK0490 (метка на CD)
Страна исполнителя (группы): US
Аудиокодек: FLAC (*.flac)
Тип рипа: image+.cue
Битрейт аудио: lossless
Продолжительность: 00:38:34
Источник (релизер): stas64
Наличие сканов в содержимом раздачи: да - 600 dpi
.
.
.
Треклист:
01. If Only Make.
02
. Go away.
03. Desperation.
04. Not happy.
05. Chameleon.
06. Running Toward The Light.
07. Photograph.
08. Suspended Disbelief.
09. Upside Down.
10. Christine.


Код:
Exact Audio Copy V1.1 from 23. June 2015
Отчёт EAC об извлечении, выполненном 12. апреля 2016, 14:33
John Brandoli / Suspended Disbelief
Дисковод: PLEXTOR DVDR   PX-712A   Adapter: 6  ID: 0
Режим чтения                 : Достоверность
Использование точного потока : Да
Отключение кэша аудио        : Да
Использование указателей C2  : Нет
Коррекция смещения при чтении                     : 30
Способность читать области Lead-in и Lead-out     : Нет
Заполнение пропущенных сэмплов тишиной            : Да
Удаление блоков с тишиной в начале и конце        : Нет
При вычислениях CRC использовались нулевые сэмплы : Да
Интерфейс                                         : Установленный внешний ASPI-интерфейс
Выходной формат          : Пользовательский кодировщик
Выбранный битрейт        : 128 kBit/s
Качество                 : Высокий
Добавление ID3-тега      : Нет
Утилита сжатия           : C:\Program Files\Exact Audio Copy\Flac\flac.exe
Дополнительные параметры : -V -8 -T "Genre=%genre%" -T "Artist=%artist%" -T "Title=%title%" -T "Album=%albumtitle%" -T "Date=%year%" -T "Tracknumber=%tracknr%" -T "Comment=%comment%" %source%
TOC извлечённого CD
     Трек |   Старт  | Длительность | Начальный сектор | Конечный сектор
    ---------------------------------------------------------------------
       1  |  0:00.00 |    4:01.22   |           0      |      18096
       2  |  4:01.22 |    4:16.65   |       18097      |      37361
       3  |  8:18.12 |    3:39.40   |       37362      |      53826
       4  | 11:57.52 |    3:40.00   |       53827      |      70326
       5  | 15:37.52 |    3:11.58   |       70327      |      84709
       6  | 18:49.35 |    3:38.42   |       84710      |     101101
       7  | 22:28.02 |    4:13.29   |      101102      |     120105
       8  | 26:41.31 |    4:36.35   |      120106      |     140840
       9  | 31:17.66 |    3:22.09   |      140841      |     155999
      10  | 34:40.00 |    3:54.64   |      156000      |     173613
Характеристики диапазона извлечения и сообщения об ошибках
Выбранный диапазон
     Имя файла I:\MOI_RAZDACI\John.Brandoli_Suspended.Disbelief_2008\John.Brandoli_Suspended.Disbelief_2008\John Brandoli - Suspended Disbelief.wav
     Пиковый уровень 97.7 %
     Скорость извлечения 11.7 X
     Качество диапазона 100.0 %
     CRC теста DC3DDD85
     CRC копии DC3DDD85
     Копирование... OK
Ошибок не произошло
AccurateRip: сводка
Трек  1  отсутствует в базе данных
Трек  2  отсутствует в базе данных
Трек  3  отсутствует в базе данных
Трек  4  отсутствует в базе данных
Трек  5  отсутствует в базе данных
Трек  6  отсутствует в базе данных
Трек  7  отсутствует в базе данных
Трек  8  отсутствует в базе данных
Трек  9  отсутствует в базе данных
Трек 10  отсутствует в базе данных
Ни одного трека нет в базе AccurateRip
Конец отчёта
---- CUETools DB Plugin V2.1.6
[CTDB TOCID: ZytbnD8zffz0MDHBwYtRppH9KXY-] found
Submit result: already submitted
Track | CTDB Status
  1   | (1/1) Accurately ripped
  2   | (1/1) Accurately ripped
  3   | (1/1) Accurately ripped
  4   | (1/1) Accurately ripped
  5   | (1/1) Accurately ripped
  6   | (1/1) Accurately ripped
  7   | (1/1) Accurately ripped
  8   | (1/1) Accurately ripped
  9   | (1/1) Accurately ripped
 10   | (1/1) Accurately ripped
==== Контрольная сумма отчёта 029EEDF6743FE95693616125FB337DA6887EED349830BBAF623BB6957FCB5C8D ====
Код:
REM GENRE Pop
REM DATE 2008
REM DISCID 74090A0A
REM COMMENT "ExactAudioCopy v1.1"
PERFORMER "John Brandoli"
TITLE "Suspended Disbelief"
FILE "John Brandoli - Suspended Disbelief.flac" WAVE
  TRACK 01 AUDIO
    TITLE "If Only Make"
    PERFORMER "John Brandoli"
    FLAGS DCP
    INDEX 01 00:00:00
  TRACK 02 AUDIO
    TITLE "Go away"
    PERFORMER "John Brandoli"
    FLAGS DCP
    INDEX 00 03:59:40
    INDEX 01 04:01:22
  TRACK 03 AUDIO
    TITLE "Desperation"
    PERFORMER "John Brandoli"
    FLAGS DCP
    INDEX 00 08:16:12
    INDEX 01 08:18:12
  TRACK 04 AUDIO
    TITLE "Not happy"
    PERFORMER "John Brandoli"
    FLAGS DCP
    INDEX 00 11:55:57
    INDEX 01 11:57:52
  TRACK 05 AUDIO
    TITLE "Chameleon"
    PERFORMER "John Brandoli"
    FLAGS DCP
    INDEX 00 15:35:62
    INDEX 01 15:37:52
  TRACK 06 AUDIO
    TITLE "Running Toward The Light"
    PERFORMER "John Brandoli"
    FLAGS DCP
    INDEX 00 18:47:39
    INDEX 01 18:49:35
  TRACK 07 AUDIO
    TITLE "Photograph"
    PERFORMER "John Brandoli"
    FLAGS DCP
    INDEX 00 22:26:13
    INDEX 01 22:28:02
  TRACK 08 AUDIO
    TITLE "Suspended Disbelief"
    PERFORMER "John Brandoli"
    FLAGS DCP
    INDEX 00 26:39:20
    INDEX 01 26:41:31
  TRACK 09 AUDIO
    TITLE "Upside Down"
    PERFORMER "John Brandoli"
    FLAGS DCP
    INDEX 00 31:15:55
    INDEX 01 31:17:66
  TRACK 10 AUDIO
    TITLE "Christine"
    PERFORMER "John Brandoli"
    FLAGS DCP
    INDEX 00 34:37:64
    INDEX 01 34:40:00
Код:
-----------------------
DON'T MODIFY THIS FILE
-----------------------
PERFORMER: auCDtect Task Manager, ver. 1.5.1RC6 build 1.5.1.7
Copyright (c) 2008-2010 y-soft. All rights reserved
[url=http://y-soft.org]http://y-soft.org[/url]
ANALYZER: auCDtect: CD records authenticity detector, version 0.8.2
Copyright (c) 2004 Oleg Berngardt. All rights reserved.
Copyright (c) 2004 Alexander Djourik. All rights reserved.
FILE: John Brandoli - Suspended Disbelief.flac
  Size: 242305429 Hash: B4F40B0C6B19BFF8AF7783C2B4BE5509 Accuracy: -m0
  Conclusion: CDDA 100%
  Signature: E88A656762D5DAC2D437E2EA0E6CFB85DAFCDF57
Прямые кликабельные ссылки на раздачи.
Direct clickable links to hand.




























Прямые кликабельные ссылки на раздачи.
Direct clickable links to hand.
































Прямые кликабельные ссылки на раздачи.
Direct clickable links to hand.


























Правила, инструкции, FAQ!!!
Торрент  Добавлен [26 мар 2019, 18:49] Скачать торрент Магнет ссылка
Скачать торрент
[ Размер 20.02 КБ / Просмотров 1 ]

Статус
Проверен 
 
Размер  244.92 МБ
Приватный: Нет (DHT включён)
.torrent скачан  0
 


     Отправить личное сообщение
   
Страница 1 из 1
Показать сообщения за:  Поле сортировки  
Начать новую тему Ответить на тему


Сейчас этот форум просматривают: нет зарегистрированных пользователей и гости: 0


Вы не можете начинать темы
Вы не можете отвечать на сообщения
Вы не можете редактировать свои сообщения
Вы не можете удалять свои сообщения
Вы не можете добавлять вложения

Перейти:  
cron