Начать новую тему Ответить на тему
Статистика раздачи
Размер: 3.81 ГБ | Добавлен: 26 мар 2019, 20:28 | Скачали: 1
Сидеров: 3  [0 байт/сек]    Личеров: 1  [0 байт/сек]
Пред. тема | След. тема 

Автор
Сообщение

СообщениеДобавлено: 26 мар 2019, 20:28 

Ответить с цитатой 

Seweryn Krajewski - Przemija uroda w nas (9CD box)
Жанр: Rock, Folk, Pop
Страна-производитель диска: Poland
Год издания: 2005
Издатель (лейбл): Agencja Artystyczna MTJ
Номер по каталогу: CD 90069
Страна: Poland
Аудиокодек: APE (*.ape)
Тип рипа: image+.cue
Битрейт аудио: lossless
Продолжительность: 10:01:23
Источник (релизер): Surowy Tato
Наличие сканов в содержимом раздачи: да /HQ covers/
Северин Краевски покорял сердца фанаток еще в 60-х как лидер самой популярной тогда польской группы CZERWONE GITARY. Ведь именно он написал такие знаменитые хиты, как "Anna Maria", "Nie Zadzieraj Nosa", "Takie Ladne Ocze". К концу 70-х он решил начать сольную карьеру. На его счету сотрудничество с такими знаменитостями, как Агнешка Осецка и Марыля Родович (для последней написал мегахит "Niech Zyje Bal"). Среди других повсеместно известных песен Северина Краевского стоит вспомнить такие названия, как "Uciekaj Moje Serce", "Ciagle Pada", "Remedium (Wsiasc Do Pociagu)", а грандиозную "Nie Spoczniemy" кто только не каверил на разных языках мира и по-польски.
Официальний сайт Северина Краевского
Почитайте о жизни и творчестве С. Краевского
Послушайте семпли
Seweryn Krajewski - Uciekaj moje serce
#77701. Baw Mnie [2:59]
02. Zawrot Glowy [4:02]
03. Chory Na Smutek [3:22]
04. Proste Wzruszenia [3:19]
05. Wszyscy Do Szalup [3:16]
06. Koleda Rozsianych Po Swiecie [4:05]
07. Przemija Uroda W Nas [3:11]
08. Wakacje W Amsterdamie [4:32]
09. Lubie Miec Margines [3:25]
10. Pijmy Wino Za Kolegow [4:22]
11. Golebi Song [4:49]
12. Papier Scierny [3:57]
13. Jak Odnalezc Nie Zgubiona [3:06]
14. Sprobuj [3:52]
15. Ziemio Blekitno-Szara [4:57]
16. Stan Podgoraczkowy [3:49]
17. Nie Tylko Ja [3:21]
18. Serce Wroc [4:08]
19. Spotkanie Starych Zolwi [2:59]
20. Najpiekniejsza [3:13]
Код:
Exact Audio Copy V0.99 prebeta 3 from 28. July 2007
EAC extraction logfile from 13. December 2008, 18:14
Seweryn Krajewski / Przemija Uroda W Nas (CD1 - Baw Mnie)
Used drive  : PLEXTOR DVDR   PX-810SA   Adapter: 1  ID: 0
Read mode               : Secure
Utilize accurate stream : Yes
Defeat audio cache      : Yes
Make use of C2 pointers : No
Read offset correction                      : 48
Overread into Lead-In and Lead-Out          : No
Fill up missing offset samples with silence : Yes
Delete leading and trailing silent blocks   : No
Null samples used in CRC calculations       : Yes
Used interface                              : Installed external ASPI interface
Used output format : Internal WAV Routines
Sample format      : 44.100 Hz; 16 Bit; Stereo
TOC of the extracted CD
     Track |   Start  |  Length  | Start sector | End sector
    ---------------------------------------------------------
        1  |  0:00.00 |  2:59.01 |         0    |    13425
        2  |  2:59.01 |  4:02.50 |     13426    |    31625
        3  |  7:01.51 |  3:22.68 |     31626    |    46843
        4  | 10:24.44 |  3:19.30 |     46844    |    61798
        5  | 13:43.74 |  3:16.02 |     61799    |    76500
        6  | 17:00.01 |  4:05.58 |     76501    |    94933
        7  | 21:05.59 |  3:11.47 |     94934    |   109305
        8  | 24:17.31 |  4:32.60 |    109306    |   129765
        9  | 28:50.16 |  3:25.05 |    129766    |   145145
       10  | 32:15.21 |  4:22.13 |    145146    |   164808
       11  | 36:37.34 |  4:49.33 |    164809    |   186516
       12  | 41:26.67 |  3:57.32 |    186517    |   204323
       13  | 45:24.24 |  3:06.71 |    204324    |   218344
       14  | 48:31.20 |  3:52.00 |    218345    |   235744
       15  | 52:23.20 |  4:57.45 |    235745    |   258064
       16  | 57:20.65 |  3:49.29 |    258065    |   275268
       17  | 61:10.19 |  3:21.05 |    275269    |   290348
       18  | 64:31.24 |  4:08.62 |    290349    |   309010
       19  | 68:40.11 |  2:59.29 |    309011    |   322464
       20  | 71:39.40 |  3:13.57 |    322465    |   336996
Range status and errors
Selected range
     Filename E:\INCOMING\EAC\Seweryn Krajewski - Przemija Uroda W Nas (CD1 - Baw Mnie).wav
     Peak level 100.0 %
     Range quality 100.0 %
     Test CRC C7C14A70
     Copy CRC C7C14A70
     Copy OK
No errors occurred
End of status report
Код:
REM GENRE "Soft Rock, Acoustic, Ballad"
REM DATE 2005
REM DISCID 19118D14
REM COMMENT "ExactAudioCopy v0.99pb3"
PERFORMER "Seweryn Krajewski"
TITLE "Przemija Uroda W Nas (CD1 - Baw Mnie)"
FILE "Seweryn Krajewski - Przemija Uroda W Nas (CD1 - Baw Mnie).wav" WAVE
  TRACK 01 AUDIO
    TITLE "Baw Mnie"
    PERFORMER "Seweryn Krajewski"
    FLAGS DCP
    INDEX 01 00:00:00
  TRACK 02 AUDIO
    TITLE "Zawrot Glowy"
    PERFORMER "Seweryn Krajewski"
    FLAGS DCP
    INDEX 00 02:57:01
    INDEX 01 02:59:01
  TRACK 03 AUDIO
    TITLE "Chory Na Smutek"
    PERFORMER "Seweryn Krajewski"
    FLAGS DCP
    INDEX 00 06:59:51
    INDEX 01 07:01:51
  TRACK 04 AUDIO
    TITLE "Proste Wzruszenia"
    PERFORMER "Seweryn Krajewski"
    FLAGS DCP
    INDEX 00 10:22:44
    INDEX 01 10:24:44
  TRACK 05 AUDIO
    TITLE "Wszyscy Do Szalup"
    PERFORMER "Seweryn Krajewski"
    FLAGS DCP
    INDEX 00 13:41:74
    INDEX 01 13:43:74
  TRACK 06 AUDIO
    TITLE "Koleda Rozsianych Po Swiecie"
    PERFORMER "Seweryn Krajewski"
    FLAGS DCP
    INDEX 00 16:58:01
    INDEX 01 17:00:01
  TRACK 07 AUDIO
    TITLE "Przemija Uroda W Nas"
    PERFORMER "Seweryn Krajewski"
    FLAGS DCP
    INDEX 00 21:03:59
    INDEX 01 21:05:59
  TRACK 08 AUDIO
    TITLE "Wakacje W Amsterdamie"
    PERFORMER "Seweryn Krajewski"
    FLAGS DCP
    INDEX 00 24:15:31
    INDEX 01 24:17:31
  TRACK 09 AUDIO
    TITLE "Lubie Miec Margines"
    PERFORMER "Seweryn Krajewski"
    FLAGS DCP
    INDEX 00 28:48:16
    INDEX 01 28:50:16
  TRACK 10 AUDIO
    TITLE "Pijmy Wino Za Kolegow"
    PERFORMER "Seweryn Krajewski"
    FLAGS DCP
    INDEX 00 32:13:21
    INDEX 01 32:15:21
  TRACK 11 AUDIO
    TITLE "Golebi Song"
    PERFORMER "Seweryn Krajewski"
    FLAGS DCP
    INDEX 00 36:35:34
    INDEX 01 36:37:34
  TRACK 12 AUDIO
    TITLE "Papier Scierny"
    PERFORMER "Seweryn Krajewski"
    FLAGS DCP
    INDEX 00 41:24:67
    INDEX 01 41:26:67
  TRACK 13 AUDIO
    TITLE "Jak Odnalezc Nie Zgubiona"
    PERFORMER "Seweryn Krajewski"
    FLAGS DCP
    INDEX 00 45:22:24
    INDEX 01 45:24:24
  TRACK 14 AUDIO
    TITLE "Sprobuj"
    PERFORMER "Seweryn Krajewski"
    FLAGS DCP
    INDEX 00 48:29:20
    INDEX 01 48:31:20
  TRACK 15 AUDIO
    TITLE "Ziemio Blekitno-Szara"
    PERFORMER "Seweryn Krajewski"
    FLAGS DCP
    INDEX 00 52:21:20
    INDEX 01 52:23:20
  TRACK 16 AUDIO
    TITLE "Stan Podgoraczkowy"
    PERFORMER "Seweryn Krajewski"
    FLAGS DCP
    INDEX 00 57:18:65
    INDEX 01 57:20:65
  TRACK 17 AUDIO
    TITLE "Nie Tylko Ja"
    PERFORMER "Seweryn Krajewski"
    FLAGS DCP
    INDEX 00 61:08:19
    INDEX 01 61:10:19
  TRACK 18 AUDIO
    TITLE "Serce Wroc"
    PERFORMER "Seweryn Krajewski"
    FLAGS DCP
    INDEX 00 64:29:24
    INDEX 01 64:31:24
  TRACK 19 AUDIO
    TITLE "Spotkanie Starych Zolwi"
    PERFORMER "Seweryn Krajewski"
    FLAGS DCP
    INDEX 00 68:38:11
    INDEX 01 68:40:11
  TRACK 20 AUDIO
    TITLE "Najpiekniejsza"
    PERFORMER "Seweryn Krajewski"
    FLAGS DCP
    INDEX 00 71:37:40
    INDEX 01 71:39:40
Код:
AUDIOCHECKER v2.0 beta (build 457) - by Dester - opdester@freemail.hu
~~~~~~~~~~~~~~~~~~~~~~~~~~~~~~~~~~
-=== DO NOT EDIT THIS FILE! ===-
Path: ...\CD1 - Baw Mnie
1 -=- Seweryn Krajewski - Przemija Uroda W Nas (CD1 - Baw Mnie).ape -=- CDDA (100%)
264622372
#77701. Roma [3:52]
02. Noc Jest Muza Dla Muzyka [3:37]
03. Absolutna Cisza Barw [4:42]
04. Jak Nagi Cel [4:34]
05. Mija Juz Wiek [3:42]
06. Broadway [4:06]
07. I Tylko Proza [3:52]
08. Miedzy Nami Mgla [4:27]
09. Wedrowanie I Kochanie [3:21]
10. Nie Mowmy O Zmartwieniach [2:40]
11. Na Dzien Dobry, Na Dobranoc [1:41]
12. Kazdy Swoje Dziesiec Minut Ma [5:40]
13. Wystarczy Raz - W Dyskotece [4:17]
14. Czemu Pedze [3:35]
15. Zaufac Snom [2:53]
16. Nie Jestes Sama [4:14]
17. Czekasz Na Te Jedna Chwile [4:55]
18. Uciekaj Moje Serce [3:32]
Код:
Exact Audio Copy V0.99 prebeta 3 from 28. July 2007
EAC extraction logfile from 13. December 2008, 18:41
Seweryn Krajewski / Przemija Uroda W Nas (CD2 - Noc Jest Muza Dla Muzyka)
Used drive  : PLEXTOR DVDR   PX-810SA   Adapter: 1  ID: 0
Read mode               : Secure
Utilize accurate stream : Yes
Defeat audio cache      : Yes
Make use of C2 pointers : No
Read offset correction                      : 48
Overread into Lead-In and Lead-Out          : No
Fill up missing offset samples with silence : Yes
Delete leading and trailing silent blocks   : No
Null samples used in CRC calculations       : Yes
Used interface                              : Installed external ASPI interface
Used output format : Internal WAV Routines
Sample format      : 44.100 Hz; 16 Bit; Stereo
TOC of the extracted CD
     Track |   Start  |  Length  | Start sector | End sector
    ---------------------------------------------------------
        1  |  0:00.00 |  3:52.54 |         0    |    17453
        2  |  3:52.54 |  3:37.08 |     17454    |    33736
        3  |  7:29.62 |  4:42.74 |     33737    |    54960
        4  | 12:12.61 |  4:34.58 |     54961    |    75568
        5  | 16:47.44 |  3:42.06 |     75569    |    92224
        6  | 20:29.50 |  4:06.74 |     92225    |   110748
        7  | 24:36.49 |  3:52.15 |    110749    |   128163
        8  | 28:28.64 |  4:27.00 |    128164    |   148188
        9  | 32:55.64 |  3:21.64 |    148189    |   163327
       10  | 36:17.53 |  2:40.35 |    163328    |   175362
       11  | 38:58.13 |  1:41.62 |    175363    |   182999
       12  | 40:40.00 |  5:40.58 |    183000    |   208557
       13  | 46:20.58 |  4:17.17 |    208558    |   227849
       14  | 50:38.00 |  3:35.38 |    227850    |   244012
       15  | 54:13.38 |  2:53.20 |    244013    |   257007
       16  | 57:06.58 |  4:14.23 |    257008    |   276080
       17  | 61:21.06 |  4:55.34 |    276081    |   298239
       18  | 66:16.40 |  3:32.01 |    298240    |   314140
Range status and errors
Selected range
     Filename E:\INCOMING\EAC\Seweryn Krajewski - Przemija Uroda W Nas (CD2 - Noc Jest Muza Dla Muzyka).wav
     Peak level 97.8 %
     Range quality 99.9 %
     Test CRC 0C4F5A49
     Copy CRC 0C4F5A49
     Copy OK
No errors occurred
End of status report
Код:
REM GENRE "Soft Rock, Acoustic, Ballad"
REM DATE 2005
REM DISCID FA105C12
REM COMMENT "ExactAudioCopy v0.99pb3"
PERFORMER "Seweryn Krajewski"
TITLE "Przemija Uroda W Nas (CD2 - Noc Jest Muza Dla Muzyka)"
FILE "Seweryn Krajewski - Przemija Uroda W Nas (CD2 - Noc Jest Muza Dla Muzyka).wav" WAVE
  TRACK 01 AUDIO
    TITLE "Roma"
    PERFORMER "Seweryn Krajewski"
    FLAGS DCP
    INDEX 01 00:00:00
  TRACK 02 AUDIO
    TITLE "Noc Jest Muza Dla Muzyka"
    PERFORMER "Seweryn Krajewski"
    FLAGS DCP
    INDEX 00 03:50:54
    INDEX 01 03:52:54
  TRACK 03 AUDIO
    TITLE "Absolutna Cisza Barw"
    PERFORMER "Seweryn Krajewski"
    FLAGS DCP
    INDEX 00 07:27:62
    INDEX 01 07:29:62
  TRACK 04 AUDIO
    TITLE "Jak Nagi Cel"
    PERFORMER "Seweryn Krajewski"
    FLAGS DCP
    INDEX 00 12:10:61
    INDEX 01 12:12:61
  TRACK 05 AUDIO
    TITLE "Mija Juz Wiek"
    PERFORMER "Seweryn Krajewski"
    FLAGS DCP
    INDEX 00 16:45:44
    INDEX 01 16:47:44
  TRACK 06 AUDIO
    TITLE "Broadway"
    PERFORMER "Seweryn Krajewski"
    FLAGS DCP
    INDEX 00 20:27:50
    INDEX 01 20:29:50
  TRACK 07 AUDIO
    TITLE "I Tylko Proza"
    PERFORMER "Seweryn Krajewski"
    FLAGS DCP
    INDEX 00 24:34:49
    INDEX 01 24:36:49
  TRACK 08 AUDIO
    TITLE "Miedzy Nami Mgla"
    PERFORMER "Seweryn Krajewski"
    FLAGS DCP
    INDEX 00 28:26:64
    INDEX 01 28:28:64
  TRACK 09 AUDIO
    TITLE "Wedrowanie I Kochanie"
    PERFORMER "Seweryn Krajewski"
    FLAGS DCP
    INDEX 00 32:53:64
    INDEX 01 32:55:64
  TRACK 10 AUDIO
    TITLE "Nie Mowmy O Zmartwieniach"
    PERFORMER "Seweryn Krajewski"
    FLAGS DCP
    INDEX 00 36:15:53
    INDEX 01 36:17:53
  TRACK 11 AUDIO
    TITLE "Na Dzien Dobry, Na Dobranoc"
    PERFORMER "Seweryn Krajewski"
    FLAGS DCP
    INDEX 00 38:56:13
    INDEX 01 38:58:13
  TRACK 12 AUDIO
    TITLE "Kazdy Swoje Dziesiec Minut Ma"
    PERFORMER "Seweryn Krajewski"
    FLAGS DCP
    INDEX 00 40:38:00
    INDEX 01 40:40:00
  TRACK 13 AUDIO
    TITLE "Wystarczy Raz - W Dyskotece"
    PERFORMER "Seweryn Krajewski"
    FLAGS DCP
    INDEX 00 46:18:58
    INDEX 01 46:20:58
  TRACK 14 AUDIO
    TITLE "Czemu Pedze"
    PERFORMER "Seweryn Krajewski"
    FLAGS DCP
    INDEX 00 50:36:00
    INDEX 01 50:38:00
  TRACK 15 AUDIO
    TITLE "Zaufac Snom"
    PERFORMER "Seweryn Krajewski"
    FLAGS DCP
    INDEX 00 54:11:38
    INDEX 01 54:13:38
  TRACK 16 AUDIO
    TITLE "Nie Jestes Sama"
    PERFORMER "Seweryn Krajewski"
    FLAGS DCP
    INDEX 00 57:04:58
    INDEX 01 57:06:58
  TRACK 17 AUDIO
    TITLE "Czekasz Na Te Jedna Chwile"
    PERFORMER "Seweryn Krajewski"
    FLAGS DCP
    INDEX 00 61:19:06
    INDEX 01 61:21:06
  TRACK 18 AUDIO
    TITLE "Uciekaj Moje Serce"
    PERFORMER "Seweryn Krajewski"
    FLAGS DCP
    INDEX 00 66:14:40
    INDEX 01 66:16:40
Код:
AUDIOCHECKER v2.0 beta (build 457) - by Dester - opdester@freemail.hu
~~~~~~~~~~~~~~~~~~~~~~~~~~~~~~~~~~
-=== DO NOT EDIT THIS FILE! ===-
Path: ...\CD2 - Noc Jest Muza Dla Muzyka
1 -=- Seweryn Krajewski - Przemija Uroda W Nas (CD2 - Noc Jest Muza Dla Muzyka).ape -=- CDDA (100%)
129508212
#77701. A Jezeli [3:25]
02. Co Kazdy Chlopiec Wiedziec Powinien [2:41]
03. Kiedy Mnie Juz Nie Bedzie [3:17]
04. Nie, Nielatwo [2:38]
05. Menazeria [1:59]
06. Dlugie Te Nasze Jesienie [3:35]
07. Jakzes Niestala [2:33]
08. Ta Nadzieja [2:51]
09. Pod Niebami [3:13]
10. Spiewka O Kamykach [2:57]
11. Spiewka O Peknietym Sercu [2:01]
12. Spiewka O Smierci [2:41]
13. Wesele Marii [3:34]
14. Czesci Zamienne [3:41]
15. Nie Lubie Niedziel [2:23]
16. Zielona Lipka [3:20]
17. Zabierz Mnie Stad [3:04]
18. Noc Sw. Lucji [3:33]
19. Diably W Deszczu [3:20]
20. No, Jakze Bedzie Tam [3:06]
21. Luna Srebrnooka [2:18]
22. Polskie Zycie [3:31]
23. Nie Uciekaj Do Mamy [2:02]
24. Tam Gdzie Kochaja Nas [2:14]
25. Klucz Do Szczescia [3:14]
Код:
Exact Audio Copy V0.99 prebeta 3 from 28. July 2007
EAC extraction logfile from 13. December 2008, 19:18
Seweryn Krajewski / Przemija Uroda W Nas (CD3 - Strofki Na Gitare)
Used drive  : PLEXTOR DVDR   PX-810SA   Adapter: 1  ID: 0
Read mode               : Secure
Utilize accurate stream : Yes
Defeat audio cache      : Yes
Make use of C2 pointers : No
Read offset correction                      : 48
Overread into Lead-In and Lead-Out          : No
Fill up missing offset samples with silence : Yes
Delete leading and trailing silent blocks   : No
Null samples used in CRC calculations       : Yes
Used interface                              : Installed external ASPI interface
Used output format : Internal WAV Routines
Sample format      : 44.100 Hz; 16 Bit; Stereo
TOC of the extracted CD
     Track |   Start  |  Length  | Start sector | End sector
    ---------------------------------------------------------
        1  |  0:00.00 |  3:25.06 |         0    |    15380
        2  |  3:25.06 |  2:41.13 |     15381    |    27468
        3  |  6:06.19 |  3:17.07 |     27469    |    42250
        4  |  9:23.26 |  2:38.43 |     42251    |    54143
        5  | 12:01.69 |  1:59.29 |     54144    |    63097
        6  | 14:01.23 |  3:35.56 |     63098    |    79278
        7  | 17:37.04 |  2:33.07 |     79279    |    90760
        8  | 20:10.11 |  2:51.70 |     90761    |   103655
        9  | 23:02.06 |  3:13.17 |    103656    |   118147
       10  | 26:15.23 |  2:57.14 |    118148    |   131436
       11  | 29:12.37 |  2:01.65 |    131437    |   140576
       12  | 31:14.27 |  2:41.62 |    140577    |   152713
       13  | 33:56.14 |  3:34.46 |    152714    |   168809
       14  | 37:30.60 |  3:41.52 |    168810    |   185436
       15  | 41:12.37 |  2:23.60 |    185437    |   196221
       16  | 43:36.22 |  3:20.17 |    196222    |   211238
       17  | 46:56.39 |  3:04.68 |    211239    |   225106
       18  | 50:01.32 |  3:33.11 |    225107    |   241092
       19  | 53:34.43 |  3:20.58 |    241093    |   256150
       20  | 56:55.26 |  3:06.65 |    256151    |   270165
       21  | 60:02.16 |  2:18.17 |    270166    |   280532
       22  | 62:20.33 |  3:31.10 |    280533    |   296367
       23  | 65:51.43 |  2:02.12 |    296368    |   305529
       24  | 67:53.55 |  2:14.56 |    305530    |   315635
       25  | 70:08.36 |  3:14.67 |    315636    |   330252
Range status and errors
Selected range
     Filename E:\INCOMING\EAC\Seweryn Krajewski - Przemija Uroda W Nas (CD3 - Strofki Na Gitare).wav
     Peak level 99.7 %
     Range quality 100.0 %
     Test CRC 380E59C6
     Copy CRC 380E59C6
     Copy OK
No errors occurred
End of status report
Код:
REM GENRE "Soft Rock, Acoustic, Ballad"
REM DATE 2005
REM DISCID 5E113319
REM COMMENT "ExactAudioCopy v0.99pb3"
PERFORMER "Seweryn Krajewski"
TITLE "Przemija Uroda W Nas (CD3 - Strofki Na Gitare)"
FILE "Seweryn Krajewski - Przemija Uroda W Nas (CD3 - Strofki Na Gitare).wav" WAVE
  TRACK 01 AUDIO
    TITLE "A Jezeli"
    PERFORMER "Seweryn Krajewski"
    FLAGS DCP
    INDEX 01 00:00:00
  TRACK 02 AUDIO
    TITLE "Co Kazdy Chlopiec Wiedziec Powinien"
    PERFORMER "Seweryn Krajewski"
    FLAGS DCP
    INDEX 00 03:23:06
    INDEX 01 03:25:06
  TRACK 03 AUDIO
    TITLE "Kiedy Mnie Juz Nie Bedzie"
    PERFORMER "Seweryn Krajewski"
    FLAGS DCP
    INDEX 00 06:04:19
    INDEX 01 06:06:19
  TRACK 04 AUDIO
    TITLE "Nie, Nielatwo"
    PERFORMER "Seweryn Krajewski"
    FLAGS DCP
    INDEX 00 09:21:26
    INDEX 01 09:23:26
  TRACK 05 AUDIO
    TITLE "Menazeria"
    PERFORMER "Seweryn Krajewski"
    FLAGS DCP
    INDEX 00 11:59:69
    INDEX 01 12:01:69
  TRACK 06 AUDIO
    TITLE "Dlugie Te Nasze Jesienie"
    PERFORMER "Seweryn Krajewski"
    FLAGS DCP
    INDEX 00 13:59:23
    INDEX 01 14:01:23
  TRACK 07 AUDIO
    TITLE "Jakzes Niestala"
    PERFORMER "Seweryn Krajewski"
    FLAGS DCP
    INDEX 00 17:35:04
    INDEX 01 17:37:04
  TRACK 08 AUDIO
    TITLE "Ta Nadzieja"
    PERFORMER "Seweryn Krajewski"
    FLAGS DCP
    INDEX 00 20:08:11
    INDEX 01 20:10:11
  TRACK 09 AUDIO
    TITLE "Pod Niebami"
    PERFORMER "Seweryn Krajewski"
    FLAGS DCP
    INDEX 00 23:00:06
    INDEX 01 23:02:06
  TRACK 10 AUDIO
    TITLE "Spiewka O Kamykach"
    PERFORMER "Seweryn Krajewski"
    FLAGS DCP
    INDEX 00 26:13:23
    INDEX 01 26:15:23
  TRACK 11 AUDIO
    TITLE "Spiewka O Peknietym Sercu"
    PERFORMER "Seweryn Krajewski"
    FLAGS DCP
    INDEX 00 29:10:37
    INDEX 01 29:12:37
  TRACK 12 AUDIO
    TITLE "Spiewka O Smierci"
    PERFORMER "Seweryn Krajewski"
    FLAGS DCP
    INDEX 00 31:12:27
    INDEX 01 31:14:27
  TRACK 13 AUDIO
    TITLE "Wesele Marii"
    PERFORMER "Seweryn Krajewski"
    FLAGS DCP
    INDEX 00 33:54:14
    INDEX 01 33:56:14
  TRACK 14 AUDIO
    TITLE "Czesci Zamienne"
    PERFORMER "Seweryn Krajewski"
    FLAGS DCP
    INDEX 00 37:28:60
    INDEX 01 37:30:60
  TRACK 15 AUDIO
    TITLE "Nie Lubie Niedziel"
    PERFORMER "Seweryn Krajewski"
    FLAGS DCP
    INDEX 00 41:10:37
    INDEX 01 41:12:37
  TRACK 16 AUDIO
    TITLE "Zielona Lipka"
    PERFORMER "Seweryn Krajewski"
    FLAGS DCP
    INDEX 00 43:34:22
    INDEX 01 43:36:22
  TRACK 17 AUDIO
    TITLE "Zabierz Mnie Stad"
    PERFORMER "Seweryn Krajewski"
    FLAGS DCP
    INDEX 00 46:54:39
    INDEX 01 46:56:39
  TRACK 18 AUDIO
    TITLE "Noc Sw. Lucji"
    PERFORMER "Seweryn Krajewski"
    FLAGS DCP
    INDEX 00 49:59:32
    INDEX 01 50:01:32
  TRACK 19 AUDIO
    TITLE "Diably W Deszczu"
    PERFORMER "Seweryn Krajewski"
    FLAGS DCP
    INDEX 00 53:32:43
    INDEX 01 53:34:43
  TRACK 20 AUDIO
    TITLE "No, Jakze Bedzie Tam"
    PERFORMER "Seweryn Krajewski"
    FLAGS DCP
    INDEX 00 56:53:26
    INDEX 01 56:55:26
  TRACK 21 AUDIO
    TITLE "Luna Srebrnooka"
    PERFORMER "Seweryn Krajewski"
    FLAGS DCP
    INDEX 00 60:00:16
    INDEX 01 60:02:16
  TRACK 22 AUDIO
    TITLE "Polskie Zycie"
    PERFORMER "Seweryn Krajewski"
    FLAGS DCP
    INDEX 00 62:18:33
    INDEX 01 62:20:33
  TRACK 23 AUDIO
    TITLE "Nie Uciekaj Do Mamy"
    PERFORMER "Seweryn Krajewski"
    FLAGS DCP
    INDEX 00 65:49:43
    INDEX 01 65:51:43
  TRACK 24 AUDIO
    TITLE "Tam Gdzie Kochaja Nas"
    PERFORMER "Seweryn Krajewski"
    FLAGS DCP
    INDEX 00 67:51:55
    INDEX 01 67:53:55
  TRACK 25 AUDIO
    TITLE "Klucz Do Szczescia"
    PERFORMER "Seweryn Krajewski"
    FLAGS DCP
    INDEX 00 70:06:36
    INDEX 01 70:08:36
Код:
AUDIOCHECKER v2.0 beta (build 457) - by Dester - opdester@freemail.hu
~~~~~~~~~~~~~~~~~~~~~~~~~~~~~~~~~~
-=== DO NOT EDIT THIS FILE! ===-
Path: ...\CD3 - Strofki Na Gitare
1 -=- Seweryn Krajewski - Przemija Uroda W Nas (CD3 - Strofki Na Gitare).ape -=- CDDA (100%)
224269364
#77701. Pogoda Na Szczescie [3:20]
02. Kolysanka Dla Okruszka [4:23]
03. Kiedy Mnie Juz Nie Bedzie [3:17]
04. Tam, Gdzie Kochaja Nas [2:43]
05. A Jezeli [3:22]
06. Paz [3:30]
07. Na Nasze Wesele [2:27]
08. Pechowy Dzien [3:29]
09. Gdy Szukam Slow [3:12]
10. Kochalem Pania [3:37]
11. Kwiat [2:38]
12. Na Kamiennej Plazy [2:18]
13. Juz Tylko Ty [2:46]
14. Skad Przychodzi Muzyka [2:33]
15. Niewielkie Szczescie [4:34]
16. Sama Chciala [2:30]
17. Bylem Stary [3:59]
18. Spiewka Zeglarska [3:08]
19. Purpurowe Zagle [3:03]
20. Daruj Nam Szara Wislo [3:07]
21. Dwie Sowy [2:42]
22. Szperando [4:09]
23. Szeptem [3:18]
Код:
Exact Audio Copy V0.99 prebeta 3 from 28. July 2007
EAC extraction logfile from 13. December 2008, 20:11
Seweryn Krajewski / Przemija Uroda W Nas (CD4 - Kiedy Mnie Juz Nie Bedzie)
Used drive  : PLEXTOR DVDR   PX-810SA   Adapter: 1  ID: 0
Read mode               : Secure
Utilize accurate stream : Yes
Defeat audio cache      : Yes
Make use of C2 pointers : No
Read offset correction                      : 48
Overread into Lead-In and Lead-Out          : No
Fill up missing offset samples with silence : Yes
Delete leading and trailing silent blocks   : No
Null samples used in CRC calculations       : Yes
Used interface                              : Installed external ASPI interface
Used output format : Internal WAV Routines
Sample format      : 44.100 Hz; 16 Bit; Stereo
TOC of the extracted CD
     Track |   Start  |  Length  | Start sector | End sector
    ---------------------------------------------------------
        1  |  0:00.00 |  3:20.49 |         0    |    15048
        2  |  3:20.49 |  4:23.54 |     15049    |    34827
        3  |  7:44.28 |  3:17.12 |     34828    |    49614
        4  | 11:01.40 |  2:43.22 |     49615    |    61861
        5  | 13:44.62 |  3:22.04 |     61862    |    77015
        6  | 17:06.66 |  3:30.35 |     77016    |    92800
        7  | 20:37.26 |  2:27.73 |     92801    |   103898
        8  | 23:05.24 |  3:29.27 |    103899    |   119600
        9  | 26:34.51 |  3:12.45 |    119601    |   134045
       10  | 29:47.21 |  3:37.59 |    134046    |   150379
       11  | 33:25.05 |  2:38.60 |    150380    |   162289
       12  | 36:03.65 |  2:18.27 |    162290    |   172666
       13  | 38:22.17 |  2:46.34 |    172667    |   185150
       14  | 41:08.51 |  2:33.27 |    185151    |   196652
       15  | 43:42.03 |  4:34.51 |    196653    |   217253
       16  | 48:16.54 |  2:30.39 |    217254    |   228542
       17  | 50:47.18 |  3:59.73 |    228543    |   246540
       18  | 54:47.16 |  3:08.16 |    246541    |   260656
       19  | 57:55.32 |  3:03.30 |    260657    |   274411
       20  | 60:58.62 |  3:07.49 |    274412    |   288485
       21  | 64:06.36 |  2:42.18 |    288486    |   300653
       22  | 66:48.54 |  4:09.37 |    300654    |   319365
       23  | 70:58.16 |  3:18.26 |    319366    |   334241
Range status and errors
Selected range
     Filename E:\INCOMING\EAC\Seweryn Krajewski - Przemija Uroda W Nas (CD4 - Kiedy Mnie Juz Nie Bedzie).wav
     Peak level 97.9 %
     Range quality 99.6 %
     Copy CRC A914B025
     Copy OK
No errors occurred
End of status report
Код:
REM GENRE "Soft Rock, Acoustic, Ballad"
REM DATE 2005
REM DISCID 59116817
REM COMMENT "ExactAudioCopy v0.99pb3"
PERFORMER "Seweryn Krajewski"
TITLE "Przemija Uroda W Nas (CD4 - Kiedy Mnie Juz Nie Bedzie)"
FILE "Seweryn Krajewski - Przemija Uroda W Nas (CD4 - Kiedy Mnie Juz Nie Bedzie).wav" WAVE
  TRACK 01 AUDIO
    TITLE "Pogoda Na Szczescie"
    PERFORMER "Seweryn Krajewski"
    FLAGS DCP
    INDEX 01 00:00:00
  TRACK 02 AUDIO
    TITLE "Kolysanka Dla Okruszka"
    PERFORMER "Seweryn Krajewski"
    FLAGS DCP
    INDEX 00 03:18:49
    INDEX 01 03:20:49
  TRACK 03 AUDIO
    TITLE "Kiedy Mnie Juz Nie Bedzie"
    PERFORMER "Seweryn Krajewski"
    FLAGS DCP
    INDEX 00 07:42:28
    INDEX 01 07:44:28
  TRACK 04 AUDIO
    TITLE "Tam, Gdzie Kochaja Nas"
    PERFORMER "Seweryn Krajewski"
    FLAGS DCP
    INDEX 00 10:59:40
    INDEX 01 11:01:40
  TRACK 05 AUDIO
    TITLE "A Jezeli"
    PERFORMER "Seweryn Krajewski"
    FLAGS DCP
    INDEX 00 13:42:62
    INDEX 01 13:44:62
  TRACK 06 AUDIO
    TITLE "Paz"
    PERFORMER "Seweryn Krajewski"
    FLAGS DCP
    INDEX 00 17:04:66
    INDEX 01 17:06:66
  TRACK 07 AUDIO
    TITLE "Na Nasze Wesele"
    PERFORMER "Seweryn Krajewski"
    FLAGS DCP
    INDEX 00 20:35:26
    INDEX 01 20:37:26
  TRACK 08 AUDIO
    TITLE "Pechowy Dzien"
    PERFORMER "Seweryn Krajewski"
    FLAGS DCP
    INDEX 00 23:03:24
    INDEX 01 23:05:24
  TRACK 09 AUDIO
    TITLE "Gdy Szukam Slow"
    PERFORMER "Seweryn Krajewski"
    FLAGS DCP
    INDEX 00 26:32:51
    INDEX 01 26:34:51
  TRACK 10 AUDIO
    TITLE "Kochalem Pania"
    PERFORMER "Seweryn Krajewski"
    FLAGS DCP
    INDEX 00 29:45:21
    INDEX 01 29:47:21
  TRACK 11 AUDIO
    TITLE "Kwiat"
    PERFORMER "Seweryn Krajewski"
    FLAGS DCP
    INDEX 00 33:23:05
    INDEX 01 33:25:05
  TRACK 12 AUDIO
    TITLE "Na Kamiennej Plazy"
    PERFORMER "Seweryn Krajewski"
    FLAGS DCP
    INDEX 00 36:01:65
    INDEX 01 36:03:65
  TRACK 13 AUDIO
    TITLE "Juz Tylko Ty"
    PERFORMER "Seweryn Krajewski"
    FLAGS DCP
    INDEX 00 38:20:17
    INDEX 01 38:22:17
  TRACK 14 AUDIO
    TITLE "Skad Przychodzi Muzyka"
    PERFORMER "Seweryn Krajewski"
    FLAGS DCP
    INDEX 00 41:06:51
    INDEX 01 41:08:51
  TRACK 15 AUDIO
    TITLE "Niewielkie Szczescie"
    PERFORMER "Seweryn Krajewski"
    FLAGS DCP
    INDEX 00 43:40:03
    INDEX 01 43:42:03
  TRACK 16 AUDIO
    TITLE "Sama Chciala"
    PERFORMER "Seweryn Krajewski"
    FLAGS DCP
    INDEX 00 48:14:54
    INDEX 01 48:16:54
  TRACK 17 AUDIO
    TITLE "Bylem Stary"
    PERFORMER "Seweryn Krajewski"
    FLAGS DCP
    INDEX 00 50:45:18
    INDEX 01 50:47:18
  TRACK 18 AUDIO
    TITLE "Spiewka Zeglarska"
    PERFORMER "Seweryn Krajewski"
    FLAGS DCP
    INDEX 00 54:45:16
    INDEX 01 54:47:16
  TRACK 19 AUDIO
    TITLE "Purpurowe Zagle"
    PERFORMER "Seweryn Krajewski"
    FLAGS DCP
    INDEX 00 57:53:32
    INDEX 01 57:55:32
  TRACK 20 AUDIO
    TITLE "Daruj Nam Szara Wislo"
    PERFORMER "Seweryn Krajewski"
    FLAGS DCP
    INDEX 00 60:56:62
    INDEX 01 60:58:62
  TRACK 21 AUDIO
    TITLE "Dwie Sowy"
    PERFORMER "Seweryn Krajewski"
    FLAGS DCP
    INDEX 00 64:04:36
    INDEX 01 64:06:36
  TRACK 22 AUDIO
    TITLE "Szperando"
    PERFORMER "Seweryn Krajewski"
    FLAGS DCP
    INDEX 00 66:46:54
    INDEX 01 66:48:54
  TRACK 23 AUDIO
    TITLE "Szeptem"
    PERFORMER "Seweryn Krajewski"
    FLAGS DCP
    INDEX 00 70:56:16
    INDEX 01 70:58:16
Код:
AUDIOCHECKER v2.0 beta (build 457) - by Dester - opdester@freemail.hu
~~~~~~~~~~~~~~~~~~~~~~~~~~~~~~~~~~
-=== DO NOT EDIT THIS FILE! ===-
Path: ...\CD4 - Kiedy Mnie Juz Nie Bedzie
1 -=- Seweryn Krajewski - Przemija Uroda W Nas (CD4 - Kiedy Mnie Juz Nie Bedzie).ape -=- CDDA (100%)
51930228
#77701. Wakacyjne Fotografie [4:47]
02. Warto [3:58]
03. Wszystkim, Ktorzy O Nas Pamietaja [4:16]
04. Na Antypody [4:46]
05. Wolni [5:53]
06. Nie Jest Zle [5:17]
07. Odmienic Los [4:06]
08. Jeszcze Zdazysz [5:42]
09. Zdradzonym I Bezbronnym [5:38]
10. Opus 1 [0:47]
11. Tak Bardzo Sie Staralem [3:38]
12. Barwy Jesieni [3:54]
13. Miedzy Deszczami [10:06]
Код:
Exact Audio Copy V0.99 prebeta 3 from 28. July 2007
EAC extraction logfile from 13. December 2008, 20:31
Seweryn Krajewski / Przemija Uroda W Nas (CD5 - Koniec)
Used drive  : PLEXTOR DVDR   PX-810SA   Adapter: 1  ID: 0
Read mode               : Secure
Utilize accurate stream : Yes
Defeat audio cache      : Yes
Make use of C2 pointers : No
Read offset correction                      : 48
Overread into Lead-In and Lead-Out          : No
Fill up missing offset samples with silence : Yes
Delete leading and trailing silent blocks   : No
Null samples used in CRC calculations       : Yes
Used interface                              : Installed external ASPI interface
Used output format : Internal WAV Routines
Sample format      : 44.100 Hz; 16 Bit; Stereo
TOC of the extracted CD
     Track |   Start  |  Length  | Start sector | End sector
    ---------------------------------------------------------
        1  |  0:00.00 |  4:47.04 |         0    |    21528
        2  |  4:47.04 |  3:58.06 |     21529    |    39384
        3  |  8:45.10 |  4:16.58 |     39385    |    58642
        4  | 13:01.68 |  4:46.66 |     58643    |    80158
        5  | 17:48.59 |  5:53.31 |     80159    |   106664
        6  | 23:42.15 |  5:17.14 |    106665    |   130453
        7  | 28:59.29 |  4:06.07 |    130454    |   148910
        8  | 33:05.36 |  5:42.74 |    148911    |   174634
        9  | 38:48.35 |  5:38.03 |    174635    |   199987
       10  | 44:26.38 |  0:47.53 |    199988    |   203565
       11  | 45:14.16 |  3:38.73 |    203566    |   219988
       12  | 48:53.14 |  3:54.71 |    219989    |   237609
       13  | 52:48.10 | 10:06.41 |    237610    |   283100
Range status and errors
Selected range
     Filename E:\INCOMING\EAC\Seweryn Krajewski - Przemija Uroda W Nas (CD5 - Koniec).wav
     Peak level 97.7 %
     Range quality 100.0 %
     Test CRC 06585C76
     Copy CRC 06585C76
     Copy OK
No errors occurred
End of status report
Код:
REM GENRE "Soft Rock, Acoustic, Ballad"
REM DATE 2005
REM DISCID BA0EBE0D
REM COMMENT "ExactAudioCopy v0.99pb3"
PERFORMER "Seweryn Krajewski"
TITLE "Przemija Uroda W Nas (CD5 - Koniec)"
FILE "Seweryn Krajewski - Przemija Uroda W Nas (CD5 - Koniec).wav" WAVE
  TRACK 01 AUDIO
    TITLE "Wakacyjne Fotografie"
    PERFORMER "Seweryn Krajewski"
    FLAGS DCP
    INDEX 01 00:00:00
  TRACK 02 AUDIO
    TITLE "Warto"
    PERFORMER "Seweryn Krajewski"
    FLAGS DCP
    INDEX 00 04:45:04
    INDEX 01 04:47:04
  TRACK 03 AUDIO
    TITLE "Wszystkim, Ktorzy O Nas Pamietaja"
    PERFORMER "Seweryn Krajewski"
    FLAGS DCP
    INDEX 00 08:43:10
    INDEX 01 08:45:10
  TRACK 04 AUDIO
    TITLE "Na Antypody"
    PERFORMER "Seweryn Krajewski"
    FLAGS DCP
    INDEX 00 12:59:68
    INDEX 01 13:01:68
  TRACK 05 AUDIO
    TITLE "Wolni"
    PERFORMER "Seweryn Krajewski"
    FLAGS DCP
    INDEX 00 17:46:59
    INDEX 01 17:48:59
  TRACK 06 AUDIO
    TITLE "Nie Jest Zle"
    PERFORMER "Seweryn Krajewski"
    FLAGS DCP
    INDEX 00 23:40:15
    INDEX 01 23:42:15
  TRACK 07 AUDIO
    TITLE "Odmienic Los"
    PERFORMER "Seweryn Krajewski"
    FLAGS DCP
    INDEX 00 28:57:29
    INDEX 01 28:59:29
  TRACK 08 AUDIO
    TITLE "Jeszcze Zdazysz"
    PERFORMER "Seweryn Krajewski"
    FLAGS DCP
    INDEX 00 33:03:36
    INDEX 01 33:05:36
  TRACK 09 AUDIO
    TITLE "Zdradzonym I Bezbronnym"
    PERFORMER "Seweryn Krajewski"
    FLAGS DCP
    INDEX 00 38:46:35
    INDEX 01 38:48:35
  TRACK 10 AUDIO
    TITLE "Opus 1"
    PERFORMER "Seweryn Krajewski"
    FLAGS DCP
    INDEX 00 44:24:38
    INDEX 01 44:26:38
  TRACK 11 AUDIO
    TITLE "Tak Bardzo Sie Staralem"
    PERFORMER "Seweryn Krajewski"
    FLAGS DCP
    INDEX 00 45:12:16
    INDEX 01 45:14:16
  TRACK 12 AUDIO
    TITLE "Barwy Jesieni"
    PERFORMER "Seweryn Krajewski"
    FLAGS DCP
    INDEX 00 48:51:14
    INDEX 01 48:53:14
  TRACK 13 AUDIO
    TITLE "Miedzy Deszczami"
    PERFORMER "Seweryn Krajewski"
    FLAGS DCP
    INDEX 00 52:46:10
    INDEX 01 52:48:10
Код:
AUDIOCHECKER v2.0 beta (build 457) - by Dester - opdester@freemail.hu
~~~~~~~~~~~~~~~~~~~~~~~~~~~~~~~~~~
-=== DO NOT EDIT THIS FILE! ===-
Path: ...\CD5 - Koniec
1 -=- Seweryn Krajewski - Przemija Uroda W Nas (CD5 - Koniec).ape -=- CDDA (100%)
213252628
#77701. Przestal Padac Deszcz [4:45]
02. List Do Jedzacej Eurydyki [4:33]
03. Lubie Ten Smutek [4:54]
04. Wolaj Mnie [5:05]
05. Jeszcze Nie Czas [4:30]
06. Nasz Codzienny Psalm [5:36]
07. Male Prosby [5:12]
08. To Juz Jesien [5:25]
09. Monolog [5:30]
10. Dom [3:25]
11. Woz [4:25]
12. Przytul Mnie Mocno [4:26]
13. Badz Wsrod Nas [4:11]
14. Nad Twoja Biala Mogila [2:39]
15. Piosenka Dla Makusia [3:05]
Код:
Exact Audio Copy V0.99 prebeta 3 from 28. July 2007
EAC extraction logfile from 13. December 2008, 20:53
Seweryn Krajewski / Przemija Uroda W Nas (CD6 - Lubie Ten Smutek)
Used drive  : PLEXTOR DVDR   PX-810SA   Adapter: 1  ID: 0
Read mode               : Secure
Utilize accurate stream : Yes
Defeat audio cache      : Yes
Make use of C2 pointers : No
Read offset correction                      : 48
Overread into Lead-In and Lead-Out          : No
Fill up missing offset samples with silence : Yes
Delete leading and trailing silent blocks   : No
Null samples used in CRC calculations       : Yes
Used interface                              : Installed external ASPI interface
Used output format : Internal WAV Routines
Sample format      : 44.100 Hz; 16 Bit; Stereo
TOC of the extracted CD
     Track |   Start  |  Length  | Start sector | End sector
    ---------------------------------------------------------
        1  |  0:00.00 |  4:45.00 |         0    |    21374
        2  |  4:45.00 |  4:33.42 |     21375    |    41891
        3  |  9:18.42 |  4:54.01 |     41892    |    63942
        4  | 14:12.43 |  5:05.46 |     63943    |    86863
        5  | 19:18.14 |  4:30.24 |     86864    |   107137
        6  | 23:48.38 |  5:36.02 |    107138    |   132339
        7  | 29:24.40 |  5:12.52 |    132340    |   155791
        8  | 34:37.17 |  5:25.10 |    155792    |   180176
        9  | 40:02.27 |  5:30.55 |    180177    |   204981
       10  | 45:33.07 |  3:25.49 |    204982    |   220405
       11  | 48:58.56 |  4:25.08 |    220406    |   240288
       12  | 53:23.64 |  4:26.60 |    240289    |   260298
       13  | 57:50.49 |  4:11.03 |    260299    |   279126
       14  | 62:01.52 |  2:39.06 |    279127    |   291057
       15  | 64:40.58 |  3:05.25 |    291058    |   304957
Range status and errors
Selected range
     Filename E:\INCOMING\EAC\Seweryn Krajewski - Przemija Uroda W Nas (CD6 - Lubie Ten Smutek).wav
     Peak level 100.0 %
     Range quality 99.9 %
     Test CRC B0BB96CC
     Copy CRC B0BB96CC
     Copy OK
No errors occurred
End of status report
Код:
REM GENRE "Soft Rock, Acoustic, Ballad"
REM DATE 2005
REM DISCID CD0FE20F
REM COMMENT "ExactAudioCopy v0.99pb3"
PERFORMER "Seweryn Krajewski"
TITLE "Przemija Uroda W Nas (CD6 - Lubie Ten Smutek)"
FILE "Seweryn Krajewski - Przemija Uroda W Nas (CD6 - Lubie Ten Smutek).wav" WAVE
  TRACK 01 AUDIO
    TITLE "Przestal Padac Deszcz"
    PERFORMER "Seweryn Krajewski"
    FLAGS DCP
    INDEX 01 00:00:00
  TRACK 02 AUDIO
    TITLE "List Do Jedzacej Eurydyki"
    PERFORMER "Seweryn Krajewski"
    FLAGS DCP
    INDEX 00 04:43:00
    INDEX 01 04:45:00
  TRACK 03 AUDIO
    TITLE "Lubie Ten Smutek"
    PERFORMER "Seweryn Krajewski"
    FLAGS DCP
    INDEX 00 09:16:42
    INDEX 01 09:18:42
  TRACK 04 AUDIO
    TITLE "Wolaj Mnie"
    PERFORMER "Seweryn Krajewski"
    FLAGS DCP
    INDEX 00 14:10:43
    INDEX 01 14:12:43
  TRACK 05 AUDIO
    TITLE "Jeszcze Nie Czas"
    PERFORMER "Seweryn Krajewski"
    FLAGS DCP
    INDEX 00 19:16:14
    INDEX 01 19:18:14
  TRACK 06 AUDIO
    TITLE "Nasz Codzienny Psalm"
    PERFORMER "Seweryn Krajewski"
    FLAGS DCP
    INDEX 00 23:46:38
    INDEX 01 23:48:38
  TRACK 07 AUDIO
    TITLE "Male Prosby"
    PERFORMER "Seweryn Krajewski"
    FLAGS DCP
    INDEX 00 29:22:40
    INDEX 01 29:24:40
  TRACK 08 AUDIO
    TITLE "To Juz Jesien"
    PERFORMER "Seweryn Krajewski"
    FLAGS DCP
    INDEX 00 34:35:17
    INDEX 01 34:37:17
  TRACK 09 AUDIO
    TITLE "Monolog"
    PERFORMER "Seweryn Krajewski"
    FLAGS DCP
    INDEX 00 40:00:27
    INDEX 01 40:02:27
  TRACK 10 AUDIO
    TITLE "Dom"
    PERFORMER "Seweryn Krajewski"
    FLAGS DCP
    INDEX 00 45:31:07
    INDEX 01 45:33:07
  TRACK 11 AUDIO
    TITLE "Woz"
    PERFORMER "Seweryn Krajewski"
    FLAGS DCP
    INDEX 00 48:56:56
    INDEX 01 48:58:56
  TRACK 12 AUDIO
    TITLE "Przytul Mnie Mocno"
    PERFORMER "Seweryn Krajewski"
    FLAGS DCP
    INDEX 00 53:21:64
    INDEX 01 53:23:64
  TRACK 13 AUDIO
    TITLE "Badz Wsrod Nas"
    PERFORMER "Seweryn Krajewski"
    FLAGS DCP
    INDEX 00 57:48:49
    INDEX 01 57:50:49
  TRACK 14 AUDIO
    TITLE "Nad Twoja Biala Mogila"
    PERFORMER "Seweryn Krajewski"
    FLAGS DCP
    INDEX 00 61:59:52
    INDEX 01 62:01:52
  TRACK 15 AUDIO
    TITLE "Piosenka Dla Makusia"
    PERFORMER "Seweryn Krajewski"
    FLAGS DCP
    INDEX 00 64:38:58
    INDEX 01 64:40:58
Код:
AUDIOCHECKER v2.0 beta (build 457) - by Dester - opdester@freemail.hu
~~~~~~~~~~~~~~~~~~~~~~~~~~~~~~~~~~
-=== DO NOT EDIT THIS FILE! ===-
Path: ...\CD6 - Lubie Ten Smutek
1 -=- Seweryn Krajewski - Przemija Uroda W Nas (CD6 - Lubie Ten Smutek).ape -=- CDDA (100%)
60252628
#77701. Obudz Serca [3:40]
02. Zlota Jablon [3:13]
03. Co To Jest Czulosc [3:13]
04. Pokochaj Ten Wiek [3:25]
05. Mietowe Pocalunki [3:39]
06. Nic To [4:33]
07. Tkanina [3:21]
08. Nagroda Za Odwage [5:16]
09. Zasnij, Duszko [3:56]
10. Kto Kochal Raz [4:25]
11. Tak Malutko [3:35]
12. Wiecej Wiary [3:23]
13. Jak Z Dylana [3:41]
14. Niepodzielni [3:39]
15. Odchodzimy [3:35]
16. Sa Miejsca... [4:02]
17. Maluski Zwyciezca [3:29]
Код:
Exact Audio Copy V0.99 prebeta 3 from 28. July 2007
EAC extraction logfile from 13. December 2008, 21:13
Seweryn Krajewski / Przemija Uroda W Nas (CD7 - Jestem)
Used drive  : PLEXTOR DVDR   PX-810SA   Adapter: 1  ID: 0
Read mode               : Secure
Utilize accurate stream : Yes
Defeat audio cache      : Yes
Make use of C2 pointers : No
Read offset correction                      : 48
Overread into Lead-In and Lead-Out          : No
Fill up missing offset samples with silence : Yes
Delete leading and trailing silent blocks   : No
Null samples used in CRC calculations       : Yes
Used interface                              : Installed external ASPI interface
Used output format : Internal WAV Routines
Sample format      : 44.100 Hz; 16 Bit; Stereo
TOC of the extracted CD
     Track |   Start  |  Length  | Start sector | End sector
    ---------------------------------------------------------
        1  |  0:00.00 |  3:40.63 |         0    |    16562
        2  |  3:40.63 |  3:13.51 |     16563    |    31088
        3  |  6:54.39 |  3:13.63 |     31089    |    45626
        4  | 10:08.27 |  3:25.40 |     45627    |    61041
        5  | 13:33.67 |  3:39.13 |     61042    |    77479
        6  | 17:13.05 |  4:33.19 |     77480    |    97973
        7  | 21:46.24 |  3:21.49 |     97974    |   113097
        8  | 25:07.73 |  5:16.74 |    113098    |   136871
        9  | 30:24.72 |  3:56.61 |    136872    |   154632
       10  | 34:21.58 |  4:25.27 |    154633    |   174534
       11  | 38:47.10 |  3:35.65 |    174535    |   190724
       12  | 42:23.00 |  3:23.47 |    190725    |   205996
       13  | 45:46.47 |  3:41.22 |    205997    |   222593
       14  | 49:27.69 |  3:39.53 |    222594    |   239071
       15  | 53:07.47 |  3:35.48 |    239072    |   255244
       16  | 56:43.20 |  4:02.25 |    255245    |   273419
       17  | 60:45.45 |  3:29.68 |    273420    |   289162
Range status and errors
Selected range
     Filename E:\INCOMING\EAC\Seweryn Krajewski - Przemija Uroda W Nas (CD7 - Jestem).wav
     Peak level 97.7 %
     Range quality 100.0 %
     Test CRC 031F2EC8
     Copy CRC 031F2EC8
     Copy OK
No errors occurred
End of status report
Код:
REM GENRE "Soft Rock, Acoustic, Ballad"
REM DATE 2005
REM DISCID EC0F0F11
REM COMMENT "ExactAudioCopy v0.99pb3"
PERFORMER "Seweryn Krajewski"
TITLE "Przemija Uroda W Nas (CD7 - Jestem)"
FILE "Seweryn Krajewski - Przemija Uroda W Nas (CD7 - Jestem).wav" WAVE
  TRACK 01 AUDIO
    TITLE "Obudz Serca"
    PERFORMER "Seweryn Krajewski"
    FLAGS DCP
    INDEX 01 00:00:00
  TRACK 02 AUDIO
    TITLE "Zlota Jablon"
    PERFORMER "Seweryn Krajewski"
    FLAGS DCP
    INDEX 00 03:38:63
    INDEX 01 03:40:63
  TRACK 03 AUDIO
    TITLE "Co To Jest Czulosc"
    PERFORMER "Seweryn Krajewski"
    FLAGS DCP
    INDEX 00 06:52:39
    INDEX 01 06:54:39
  TRACK 04 AUDIO
    TITLE "Pokochaj Ten Wiek"
    PERFORMER "Seweryn Krajewski"
    FLAGS DCP
    INDEX 00 10:06:27
    INDEX 01 10:08:27
  TRACK 05 AUDIO
    TITLE "Mietowe Pocalunki"
    PERFORMER "Seweryn Krajewski"
    FLAGS DCP
    INDEX 00 13:31:67
    INDEX 01 13:33:67
  TRACK 06 AUDIO
    TITLE "Nic To"
    PERFORMER "Seweryn Krajewski"
    FLAGS DCP
    INDEX 00 17:11:05
    INDEX 01 17:13:05
  TRACK 07 AUDIO
    TITLE "Tkanina"
    PERFORMER "Seweryn Krajewski"
    FLAGS DCP
    INDEX 00 21:44:24
    INDEX 01 21:46:24
  TRACK 08 AUDIO
    TITLE "Nagroda Za Odwage"
    PERFORMER "Seweryn Krajewski"
    FLAGS DCP
    INDEX 00 25:05:73
    INDEX 01 25:07:73
  TRACK 09 AUDIO
    TITLE "Zasnij, Duszko"
    PERFORMER "Seweryn Krajewski"
    FLAGS DCP
    INDEX 00 30:22:72
    INDEX 01 30:24:72
  TRACK 10 AUDIO
    TITLE "Kto Kochal Raz"
    PERFORMER "Seweryn Krajewski"
    FLAGS DCP
    INDEX 00 34:19:58
    INDEX 01 34:21:58
  TRACK 11 AUDIO
    TITLE "Tak Malutko"
    PERFORMER "Seweryn Krajewski"
    FLAGS DCP
    INDEX 00 38:45:10
    INDEX 01 38:47:10
  TRACK 12 AUDIO
    TITLE "Wiecej Wiary"
    PERFORMER "Seweryn Krajewski"
    FLAGS DCP
    INDEX 00 42:21:00
    INDEX 01 42:23:00
  TRACK 13 AUDIO
    TITLE "Jak Z Dylana"
    PERFORMER "Seweryn Krajewski"
    FLAGS DCP
    INDEX 00 45:44:47
    INDEX 01 45:46:47
  TRACK 14 AUDIO
    TITLE "Niepodzielni"
    PERFORMER "Seweryn Krajewski"
    FLAGS DCP
    INDEX 00 49:25:69
    INDEX 01 49:27:69
  TRACK 15 AUDIO
    TITLE "Odchodzimy"
    PERFORMER "Seweryn Krajewski"
    FLAGS DCP
    INDEX 00 53:05:47
    INDEX 01 53:07:47
  TRACK 16 AUDIO
    TITLE "Sa Miejsca..."
    PERFORMER "Seweryn Krajewski"
    FLAGS DCP
    INDEX 00 56:41:20
    INDEX 01 56:43:20
  TRACK 17 AUDIO
    TITLE "Maluski Zwyciezca"
    PERFORMER "Seweryn Krajewski"
    FLAGS DCP
    INDEX 00 60:43:45
    INDEX 01 60:45:45
Код:
AUDIOCHECKER v2.0 beta (build 457) - by Dester - opdester@freemail.hu
~~~~~~~~~~~~~~~~~~~~~~~~~~~~~~~~~~
-=== DO NOT EDIT THIS FILE! ===-
Path: ...\CD7 - Jestem
1 -=- Seweryn Krajewski - Przemija Uroda W Nas (CD7 - Jestem).ape -=- CDDA (100%)
212163700
#77701. Jan Serce (Final) [2:28]
02. Lusia [1:23]
03. Malgosia [2:39]
04. Przypadki Piotra S. (I) [1:03]
05. Pierwsza Wizyta U Moniki [3:28]
06. Przypadki Piotra S. (II) [1:31]
07. Bez Milosci [3:32]
08. Pierwszy Bal Nataszy [2:22]
09. Samotnosc Andrzeja [4:09]
10. Pogrzeb Lizy [3:24]
11. Och, Karol [4:07]
12. Lekarstwo Dla Matki [2:02]
13. Proba Samobojstwa [2:09]
14. Poszukiwanie Syna [2:04]
15. Bardzo Powazna Rozmowa [2:24]
16. Symfonia Samotnosci [2:18]
17. Galimatias [3:58]
18. Cesarskie Ciecie [3:15]
19. Lesniczowka [1:22]
20. Nie Chciana [1:16]
21. Odbicia [2:24]
22. Wieczorne Spotkanie [2:33]
23. Niespodziewana Propozycja [3:40]
24. Teskniac Za Rodzina [1:22]
25. Prolog [1:15]
26. Opowiesc O Cyganie [1:48]
27. Pewien Niepokoj [0:47]
28. Slub I Smierc [1:24]
29. Juz Razem [3:09]
30. To Nie Jest Koniec Swiata (II) [2:37]
31. To Nie Jest Koniec Swiata (III) [1:29]
32. To Nie Jest Koniec Swiata [1:26]
Код:
Exact Audio Copy V0.99 prebeta 3 from 28. July 2007
EAC extraction logfile from 13. December 2008, 21:35
Seweryn Krajewski / Przemija Uroda W Nas (CD8 - Symfonia Samotnosci)
Used drive  : PLEXTOR DVDR   PX-810SA   Adapter: 1  ID: 0
Read mode               : Secure
Utilize accurate stream : Yes
Defeat audio cache      : Yes
Make use of C2 pointers : No
Read offset correction                      : 48
Overread into Lead-In and Lead-Out          : No
Fill up missing offset samples with silence : Yes
Delete leading and trailing silent blocks   : No
Null samples used in CRC calculations       : Yes
Used interface                              : Installed external ASPI interface
Used output format : Internal WAV Routines
Sample format      : 44.100 Hz; 16 Bit; Stereo
TOC of the extracted CD
     Track |   Start  |  Length  | Start sector | End sector
    ---------------------------------------------------------
        1  |  0:00.00 |  2:28.65 |         0    |    11164
        2  |  2:28.65 |  1:23.11 |     11165    |    17400
        3  |  3:52.01 |  2:39.27 |     17401    |    29352
        4  |  6:31.28 |  1:03.06 |     29353    |    34083
        5  |  7:34.34 |  3:28.18 |     34084    |    49701
        6  | 11:02.52 |  1:31.35 |     49702    |    56561
        7  | 12:34.12 |  3:32.52 |     56562    |    72513
        8  | 16:06.64 |  2:22.07 |     72514    |    83170
        9  | 18:28.71 |  4:09.46 |     83171    |   101891
       10  | 22:38.42 |  3:24.35 |    101892    |   117226
       11  | 26:03.02 |  4:07.27 |    117227    |   135778
       12  | 30:10.29 |  2:02.01 |    135779    |   144929
       13  | 32:12.30 |  2:09.53 |    144930    |   154657
       14  | 34:22.08 |  2:04.45 |    154658    |   164002
       15  | 36:26.53 |  2:24.42 |    164003    |   174844
       16  | 38:51.20 |  2:18.65 |    174845    |   185259
       17  | 41:10.10 |  3:58.12 |    185260    |   203121
       18  | 45:08.22 |  3:15.09 |    203122    |   217755
       19  | 48:23.31 |  1:22.31 |    217756    |   223936
       20  | 49:45.62 |  1:16.24 |    223937    |   229660
       21  | 51:02.11 |  2:24.19 |    229661    |   240479
       22  | 53:26.30 |  2:33.28 |    240480    |   251982
       23  | 55:59.58 |  3:40.74 |    251983    |   268556
       24  | 59:40.57 |  1:22.01 |    268557    |   274707
       25  | 61:02.58 |  1:15.54 |    274708    |   280386
       26  | 62:18.37 |  1:48.05 |    280387    |   288491
       27  | 64:06.42 |  0:47.62 |    288492    |   292078
       28  | 64:54.29 |  1:24.14 |    292079    |   298392
       29  | 66:18.43 |  3:09.40 |    298393    |   312607
       30  | 69:28.08 |  2:37.35 |    312608    |   324417
       31  | 72:05.43 |  1:29.01 |    324418    |   331093
       32  | 73:34.44 |  1:26.42 |    331094    |   337585
Range status and errors
Selected range
     Filename E:\INCOMING\EAC\Seweryn Krajewski - Przemija Uroda W Nas (CD8 - Symfonia Samotnosci).wav
     Peak level 98.6 %
     Range quality 99.9 %
     Test CRC BFA58D89
     Copy CRC BFA58D89
     Copy OK
No errors occurred
End of status report
Код:
12:17 ч. 16.11.2012 г.REM GENRE "Soft Rock, Acoustic, Ballad"
REM DATE 2005
REM DISCID DB119520
REM COMMENT "ExactAudioCopy v0.99pb3"
PERFORMER "Seweryn Krajewski"
TITLE "Przemija Uroda W Nas (CD8 - Symfonia Samotnosci)"
FILE "Seweryn Krajewski - Przemija Uroda W Nas (CD8 - Symfonia Samotnosci).wav" WAVE
  TRACK 01 AUDIO
    TITLE "Jan Serce (Final)"
    PERFORMER "Seweryn Krajewski"
    FLAGS DCP
    INDEX 01 00:00:00
  TRACK 02 AUDIO
    TITLE "Lusia"
    PERFORMER "Seweryn Krajewski"
    FLAGS DCP
    INDEX 00 02:26:65
    INDEX 01 02:28:65
  TRACK 03 AUDIO
    TITLE "Malgosia"
    PERFORMER "Seweryn Krajewski"
    FLAGS DCP
    INDEX 00 03:50:01
    INDEX 01 03:52:01
  TRACK 04 AUDIO
    TITLE "Przypadki Piotra S. (I)"
    PERFORMER "Seweryn Krajewski"
    FLAGS DCP
    INDEX 00 06:29:28
    INDEX 01 06:31:28
  TRACK 05 AUDIO
    TITLE "Pierwsza Wizyta U Moniki"
    PERFORMER "Seweryn Krajewski"
    FLAGS DCP
    INDEX 00 07:32:34
    INDEX 01 07:34:34
  TRACK 06 AUDIO
    TITLE "Przypadki Piotra S. (II)"
    PERFORMER "Seweryn Krajewski"
    FLAGS DCP
    INDEX 00 11:00:52
    INDEX 01 11:02:52
  TRACK 07 AUDIO
    TITLE "Bez Milosci"
    PERFORMER "Seweryn Krajewski"
    FLAGS DCP
    INDEX 00 12:32:12
    INDEX 01 12:34:12
  TRACK 08 AUDIO
    TITLE "Pierwszy Bal Nataszy"
    PERFORMER "Seweryn Krajewski"
    FLAGS DCP
    INDEX 00 16:04:64
    INDEX 01 16:06:64
  TRACK 09 AUDIO
    TITLE "Samotnosc Andrzeja"
    PERFORMER "Seweryn Krajewski"
    FLAGS DCP
    INDEX 00 18:26:71
    INDEX 01 18:28:71
  TRACK 10 AUDIO
    TITLE "Pogrzeb Lizy"
    PERFORMER "Seweryn Krajewski"
    FLAGS DCP
    INDEX 00 22:36:42
    INDEX 01 22:38:42
  TRACK 11 AUDIO
    TITLE "Och, Karol"
    PERFORMER "Seweryn Krajewski"
    FLAGS DCP
    INDEX 00 26:01:02
    INDEX 01 26:03:02
  TRACK 12 AUDIO
    TITLE "Lekarstwo Dla Matki"
    PERFORMER "Seweryn Krajewski"
    FLAGS DCP
    INDEX 00 30:08:29
    INDEX 01 30:10:29
  TRACK 13 AUDIO
    TITLE "Proba Samobojstwa"
    PERFORMER "Seweryn Krajewski"
    FLAGS DCP
    INDEX 00 32:10:30
    INDEX 01 32:12:30
  TRACK 14 AUDIO
    TITLE "Poszukiwanie Syna"
    PERFORMER "Seweryn Krajewski"
    FLAGS DCP
    INDEX 00 34:20:08
    INDEX 01 34:22:08
  TRACK 15 AUDIO
    TITLE "Bardzo Powazna Rozmowa"
    PERFORMER "Seweryn Krajewski"
    FLAGS DCP
    INDEX 00 36:24:53
    INDEX 01 36:26:53
  TRACK 16 AUDIO
    TITLE "Symfonia Samotnosci"
    PERFORMER "Seweryn Krajewski"
    FLAGS DCP
    INDEX 00 38:49:20
    INDEX 01 38:51:20
  TRACK 17 AUDIO
    TITLE "Galimatias"
    PERFORMER "Seweryn Krajewski"
    FLAGS DCP
    INDEX 00 41:08:10
    INDEX 01 41:10:10
  TRACK 18 AUDIO
    TITLE "Cesarskie Ciecie"
    PERFORMER "Seweryn Krajewski"
    FLAGS DCP
    INDEX 00 45:06:22
    INDEX 01 45:08:22
  TRACK 19 AUDIO
    TITLE "Lesniczowka"
    PERFORMER "Seweryn Krajewski"
    FLAGS DCP
    INDEX 00 48:21:31
    INDEX 01 48:23:31
  TRACK 20 AUDIO
    TITLE "Nie Chciana"
    PERFORMER "Seweryn Krajewski"
    FLAGS DCP
    INDEX 00 49:43:62
    INDEX 01 49:45:62
  TRACK 21 AUDIO
    TITLE "Odbicia"
    PERFORMER "Seweryn Krajewski"
    FLAGS DCP
    INDEX 00 51:00:11
    INDEX 01 51:02:11
  TRACK 22 AUDIO
    TITLE "Wieczorne Spotkanie"
    PERFORMER "Seweryn Krajewski"
    FLAGS DCP
    INDEX 00 53:24:30
    INDEX 01 53:26:30
  TRACK 23 AUDIO
    TITLE "Niespodziewana Propozycja"
    PERFORMER "Seweryn Krajewski"
    FLAGS DCP
    INDEX 00 55:57:58
    INDEX 01 55:59:58
  TRACK 24 AUDIO
    TITLE "Teskniac Za Rodzina"
    PERFORMER "Seweryn Krajewski"
    FLAGS DCP
    INDEX 00 59:38:57
    INDEX 01 59:40:57
  TRACK 25 AUDIO
    TITLE "Prolog"
    PERFORMER "Seweryn Krajewski"
    FLAGS DCP
    INDEX 00 61:00:58
    INDEX 01 61:02:58
  TRACK 26 AUDIO
    TITLE "Opowiesc O Cyganie"
    PERFORMER "Seweryn Krajewski"
    FLAGS DCP
    INDEX 00 62:16:37
    INDEX 01 62:18:37
  TRACK 27 AUDIO
    TITLE "Pewien Niepokoj"
    PERFORMER "Seweryn Krajewski"
    FLAGS DCP
    INDEX 00 64:04:42
    INDEX 01 64:06:42
  TRACK 28 AUDIO
    TITLE "Slub I Smierc"
    PERFORMER "Seweryn Krajewski"
    FLAGS DCP
    INDEX 00 64:52:29
    INDEX 01 64:54:29
  TRACK 29 AUDIO
    TITLE "Juz Razem"
    PERFORMER "Seweryn Krajewski"
    FLAGS DCP
    INDEX 00 66:16:43
    INDEX 01 66:18:43
  TRACK 30 AUDIO
    TITLE "To Nie Jest Koniec Swiata (II)"
    PERFORMER "Seweryn Krajewski"
    FLAGS DCP
    INDEX 00 69:26:08
    INDEX 01 69:28:08
  TRACK 31 AUDIO
    TITLE "To Nie Jest Koniec Swiata (III)"
    PERFORMER "Seweryn Krajewski"
    FLAGS DCP
    INDEX 00 72:03:43
    INDEX 01 72:05:43
  TRACK 32 AUDIO
    TITLE "To Nie Jest Koniec Swiata"
    PERFORMER "Seweryn Krajewski"
    FLAGS DCP
    INDEX 00 73:32:44
    INDEX 01 73:34:44
Код:
AUDIOCHECKER v2.0 beta (build 457) - by Dester - opdester@freemail.hu
~~~~~~~~~~~~~~~~~~~~~~~~~~~~~~~~~~
-=== DO NOT EDIT THIS FILE! ===-
Path: ...\CD8 - Symfonia Samotnosci (Muzyka Filmowa i Teatralna)
1 -=- Seweryn Krajewski - Przemija Uroda W Nas (CD8 - Symfonia Samotnosci).ape -=- CDDA (100%)
258411780
#77701. Tak Bardzo Sie Staralem [1:32]
02. Anna Maria [1:36]
03. Takie Ladne Oczy [0:45]
04. Barwy Jesieni [1:00]
05. Wolny Wieczor [1:55]
06. Stracic Kogos [2:51]
07. Plona Gory, Plona Lasy [1:46]
08. Remedium [1:49]
09. Wschod Slonca W Stadninie Koni [1:59]
10. Mija Rok [2:47]
11. Trzecia Milosc - Zagle [1:55]
12. Niebo Z Moich Stron [1:30]
13. Nie Spoczniemy [3:30]
14. Kolysanka Dla Okruszka [2:38]
15. Najpiekniejsza [1:25]
16. Polskie Zycie [3:20]
17. Uciekaj Moje Serce [3:14]
18. Piosenka O Mojej Warszawie [3:26]
Код:
Exact Audio Copy V0.99 prebeta 3 from 28. July 2007
EAC extraction logfile from 13. December 2008, 21:50
Seweryn Krajewski / Przemija Uroda W Nas (CD9 - Przeboje 1965-1985 Kameralnie)
Used drive  : PLEXTOR DVDR   PX-810SA   Adapter: 1  ID: 0
Read mode               : Secure
Utilize accurate stream : Yes
Defeat audio cache      : Yes
Make use of C2 pointers : No
Read offset correction                      : 48
Overread into Lead-In and Lead-Out          : No
Fill up missing offset samples with silence : Yes
Delete leading and trailing silent blocks   : No
Null samples used in CRC calculations       : Yes
Used interface                              : Installed external ASPI interface
Used output format : Internal WAV Routines
Sample format      : 44.100 Hz; 16 Bit; Stereo
TOC of the extracted CD
     Track |   Start  |  Length  | Start sector | End sector
    ---------------------------------------------------------
        1  |  0:00.00 |  1:32.25 |         0    |     6924
        2  |  1:32.25 |  1:36.25 |      6925    |    14149
        3  |  3:08.50 |  0:45.40 |     14150    |    17564
        4  |  3:54.15 |  1:00.35 |     17565    |    22099
        5  |  4:54.50 |  1:55.18 |     22100    |    30742
        6  |  6:49.68 |  2:51.07 |     30743    |    43574
        7  |  9:41.00 |  1:46.12 |     43575    |    51536
        8  | 11:27.12 |  1:49.57 |     51537    |    59768
        9  | 13:16.69 |  1:59.11 |     59769    |    68704
       10  | 15:16.05 |  2:47.08 |     68705    |    81237
       11  | 18:03.13 |  1:55.56 |     81238    |    89918
       12  | 19:58.69 |  1:30.59 |     89919    |    96727
       13  | 21:29.53 |  3:30.38 |     96728    |   112515
       14  | 25:00.16 |  2:38.03 |    112516    |   124368
       15  | 27:38.19 |  1:25.35 |    124369    |   130778
       16  | 29:03.54 |  3:20.33 |    130779    |   145811
       17  | 32:24.12 |  3:14.52 |    145812    |   160413
       18  | 35:38.64 |  3:26.00 |    160414    |   175863
Range status and errors
Selected range
     Filename E:\INCOMING\EAC\Seweryn Krajewski - Przemija Uroda W Nas (CD9 - Przeboje 1965-1985 Kameralnie).wav
     Peak level 97.3 %
     Range quality 100.0 %
     Test CRC 646440C9
     Copy CRC 646440C9
     Copy OK
No errors occurred
End of status report
Код:
REM GENRE "Soft Rock, Acoustic, Ballad"
REM DATE 2005
REM DISCID EB092812
REM COMMENT "ExactAudioCopy v0.99pb3"
PERFORMER "Seweryn Krajewski"
TITLE "Przemija Uroda W Nas (CD9 - Przeboje 1965-1985 Kameralnie)"
FILE "Seweryn Krajewski - Przemija Uroda W Nas (CD9 - Przeboje 1965-1985 Kameralnie).wav" WAVE
  TRACK 01 AUDIO
    TITLE "Tak Bardzo Sie Staralem"
    PERFORMER "Seweryn Krajewski"
    FLAGS DCP
    INDEX 01 00:00:00
  TRACK 02 AUDIO
    TITLE "Anna Maria"
    PERFORMER "Seweryn Krajewski"
    FLAGS DCP
    INDEX 01 01:32:25
  TRACK 03 AUDIO
    TITLE "Takie Ladne Oczy"
    PERFORMER "Seweryn Krajewski"
    FLAGS DCP
    INDEX 01 03:08:50
  TRACK 04 AUDIO
    TITLE "Barwy Jesieni"
    PERFORMER "Seweryn Krajewski"
    FLAGS DCP
    INDEX 01 03:54:15
  TRACK 05 AUDIO
    TITLE "Wolny Wieczor"
    PERFORMER "Seweryn Krajewski"
    FLAGS DCP
    INDEX 01 04:54:50
  TRACK 06 AUDIO
    TITLE "Stracic Kogos"
    PERFORMER "Seweryn Krajewski"
    FLAGS DCP
    INDEX 01 06:49:68
  TRACK 07 AUDIO
    TITLE "Plona Gory, Plona Lasy"
    PERFORMER "Seweryn Krajewski"
    FLAGS DCP
    INDEX 01 09:41:00
  TRACK 08 AUDIO
    TITLE "Remedium"
    PERFORMER "Seweryn Krajewski"
    FLAGS DCP
    INDEX 01 11:27:12
  TRACK 09 AUDIO
    TITLE "Wschod Slonca W Stadninie Koni"
    PERFORMER "Seweryn Krajewski"
    FLAGS DCP
    INDEX 01 13:16:69
  TRACK 10 AUDIO
    TITLE "Mija Rok"
    PERFORMER "Seweryn Krajewski"
    FLAGS DCP
    INDEX 01 15:16:05
  TRACK 11 AUDIO
    TITLE "Trzecia Milosc - Zagle"
    PERFORMER "Seweryn Krajewski"
    FLAGS DCP
    INDEX 01 18:03:13
  TRACK 12 AUDIO
    TITLE "Niebo Z Moich Stron"
    PERFORMER "Seweryn Krajewski"
    FLAGS DCP
    INDEX 01 19:58:69
  TRACK 13 AUDIO
    TITLE "Nie Spoczniemy"
    PERFORMER "Seweryn Krajewski"
    FLAGS DCP
    INDEX 01 21:29:53
  TRACK 14 AUDIO
    TITLE "Kolysanka Dla Okruszka"
    PERFORMER "Seweryn Krajewski"
    FLAGS DCP
    INDEX 01 25:00:16
  TRACK 15 AUDIO
    TITLE "Najpiekniejsza"
    PERFORMER "Seweryn Krajewski"
    FLAGS DCP
    INDEX 01 27:38:19
  TRACK 16 AUDIO
    TITLE "Polskie Zycie"
    PERFORMER "Seweryn Krajewski"
    FLAGS DCP
    INDEX 01 29:03:54
  TRACK 17 AUDIO
    TITLE "Uciekaj Moje Serce"
    PERFORMER "Seweryn Krajewski"
    FLAGS DCP
    INDEX 01 32:24:12
  TRACK 18 AUDIO
    TITLE "Piosenka O Mojej Warszawie"
    PERFORMER "Seweryn Krajewski"
    FLAGS DCP
    INDEX 01 35:38:64
Код:
AUDIOCHECKER v2.0 beta (build 457) - by Dester - opdester@freemail.hu
~~~~~~~~~~~~~~~~~~~~~~~~~~~~~~~~~~
-=== DO NOT EDIT THIS FILE! ===-
Path: ...\CD9 - Przeboje 1965-1985 Kameralnie
1 -=- Seweryn Krajewski - Przemija Uroda W Nas (CD9 - Przeboje 1965-1985 Kameralnie).ape -=- CDDA (100%)
58266052
Redakcja calosci i opisy: Daniel Wyszogrodzki
Zdjecia: Grzegorz Blazejczyk (Sony Music Polska), Marek Karewicz
Cyfrowy mastering: Staszek Bokowy, Warszawa, listopad 2004r.
Projekt i sklad calosci: Anna Stepniak
#777
Прошу не уходите сразу с раздачи, сидировать уже не буду. Сейчась вся слава за вами.
А если торрент понравился, не ленитесь нажимать на Сп..
Правила, инструкции, FAQ!!!
Торрент  Добавлен [26 мар 2019, 20:28] Скачать торрент Магнет ссылка
Скачать торрент
[ Размер 27.17 КБ / Просмотров 4 ]

Статус
Проверен 
 
Размер  3.81 ГБ
Приватный: Нет (DHT включён)
.torrent скачан  1
 


     Отправить личное сообщение
   
Страница 1 из 1
Показать сообщения за:  Поле сортировки  
Начать новую тему Ответить на тему


Сейчас этот форум просматривают: нет зарегистрированных пользователей и гости: 0


Вы не можете начинать темы
Вы не можете отвечать на сообщения
Вы не можете редактировать свои сообщения
Вы не можете удалять свои сообщения
Вы не можете добавлять вложения

Перейти:  
cron