Начать новую тему Ответить на тему
Статистика раздачи
Размер: 223.24 МБ | Добавлен: 26 мар 2019, 19:55 | Скачали: 0
Сидеров: 0  [0 байт/сек]    Личеров: 0  [0 байт/сек]
Пред. тема | След. тема 

Автор
Сообщение

СообщениеДобавлено: 26 мар 2019, 19:55 

Ответить с цитатой 

Eugenio Finardi / Secret streets
Жанр: Rock
Год издания: 1989
Страна исполнителя (группы): Италия
Аудиокодек: FLAC (*.flac)
Тип рипа: tracks+.cue
Битрейт аудио: lossless
Продолжительность: 00:36:39
Источник (релизер): internet
Наличие сканов в содержимом раздачи: да
Треклист:
1. Hostages [03.49]
2. Corinna [03.22]
3. Secret Streets [06.33]
4. Mayday [04.25]
5. Rock Seeds [03.48]
6. Love to Make Love to You [03.13]
7. Beyond The Icy Rings Of Saturn [04.21]
8. Warsaw [03.38]
9. A Blues for the Eighties [03.27]
Код:
Exact Audio Copy V1.0 beta 3 from 29. August 2011
EAC extraction logfile from 17. May 2014, 15:13
Eugenio Finardi / Secret Streets
Used drive  : HL-DT-STDVDRAM GSA-T40N   Adapter: 0  ID: 0
Read mode               : Secure
Utilize accurate stream : Yes
Defeat audio cache      : Yes
Make use of C2 pointers : No
Read offset correction                      : 667
Overread into Lead-In and Lead-Out          : No
Fill up missing offset samples with silence : Yes
Delete leading and trailing silent blocks   : No
Null samples used in CRC calculations       : Yes
Used interface                              : Native Win32 interface for Win NT & 2000
Gap handling                                : Appended to previous track
Used output format              : User Defined Encoder
Selected bitrate                : 896 kBit/s
Quality                         : High
Add ID3 tag                     : No
Command line compressor         : C:\Program Files\Exact Audio Copy\FLAC\FLAC.EXE
Additional command line options : -8 -V -T "ARTIST=%artist%" -T "TITLE=%title%" -T "ALBUM=%albumtitle%" -T "DATE=%year%" -T "TRACKNUMBER=%tracknr%" -T "GENRE=%genre%" -T "COMMENT=%comment%" -T "BAND=%albuminterpret%" -T "ALBUMARTIST=%albuminterpret%" -T "COMPOSER=%composer%" %haslyrics%--tag-from-file=LYRICS="%lyricsfile%"%haslyrics% -T "DISCNUMBER=%cdnumber%" -T "TOTALDISCS=%totalcds%" -T "TOTALTRACKS=%numtracks%" %hascover%--picture="%coverfile%"%hascover% %source% -o %dest%
TOC of the extracted CD
     Track |   Start  |  Length  | Start sector | End sector
    ---------------------------------------------------------
        1  |  0:00.32 |  3:49.63 |        32    |    17269
        2  |  3:50.20 |  3:22.25 |     17270    |    32444
        3  |  7:12.45 |  6:33.12 |     32445    |    61931
        4  | 13:45.57 |  4:25.38 |     61932    |    81844
        5  | 18:11.20 |  3:48.00 |     81845    |    98944
        6  | 21:59.20 |  3:13.62 |     98945    |   113481
        7  | 25:13.07 |  4:21.50 |    113482    |   133106
        8  | 29:34.57 |  3:38.25 |    133107    |   149481
        9  | 33:13.07 |  3:27.00 |    149482    |   165006
Track  1
     Filename H:\MY EAC[.FLAC]\Eugenio Finardi - Secret Streets\(1) Hostages - Eugenio Finardi.flac
     Pre-gap length  0:00:02.42
     Peak level 100.0 %
     Extraction speed 2.1 X
     Track quality 100.0 %
     Test CRC B0073C5D
     Copy CRC B0073C5D
     Accurately ripped (confidence 1)  [12DF92C9]  (AR v1)
     Copy OK
Track  2
     Filename H:\MY EAC[.FLAC]\Eugenio Finardi - Secret Streets\(2) Corinna - Eugenio Finardi.flac
     Pre-gap length  0:00:03.50
     Peak level 100.0 %
     Extraction speed 2.3 X
     Track quality 100.0 %
     Test CRC 7762CA6C
     Copy CRC 7762CA6C
     Accurately ripped (confidence 1)  [AAF5DD06]  (AR v1)
     Copy OK
Track  3
     Filename H:\MY EAC[.FLAC]\Eugenio Finardi - Secret Streets\(3) Secret Streets - Eugenio Finardi.flac
     Pre-gap length  0:00:02.00
     Peak level 89.1 %
     Extraction speed 2.7 X
     Track quality 100.0 %
     Test CRC 91CDDDBD
     Copy CRC 91CDDDBD
     Accurately ripped (confidence 1)  [D24E5D01]  (AR v1)
     Copy OK
Track  4
     Filename H:\MY EAC[.FLAC]\Eugenio Finardi - Secret Streets\(4) Mayday - Eugenio Finardi.flac
     Pre-gap length  0:00:03.00
     Peak level 100.0 %
     Extraction speed 2.8 X
     Track quality 100.0 %
     Test CRC C45971AB
     Copy CRC C45971AB
     Accurately ripped (confidence 1)  [B415107E]  (AR v1)
     Copy OK
Track  5
     Filename H:\MY EAC[.FLAC]\Eugenio Finardi - Secret Streets\(5) Rock Seeds - Eugenio Finardi.flac
     Pre-gap length  0:00:04.50
     Peak level 95.6 %
     Extraction speed 2.9 X
     Track quality 100.0 %
     Test CRC CC005ADB
     Copy CRC CC005ADB
     Accurately ripped (confidence 1)  [356DA5CB]  (AR v1)
     Copy OK
Track  6
     Filename H:\MY EAC[.FLAC]\Eugenio Finardi - Secret Streets\(6) Love to Make Love to You - Eugenio Finardi.flac
     Pre-gap length  0:00:03.00
     Peak level 100.0 %
     Extraction speed 3.0 X
     Track quality 100.0 %
     Test CRC 8E616A45
     Copy CRC 8E616A45
     Accurately ripped (confidence 1)  [5E744120]  (AR v1)
     Copy OK
Track  7
     Filename H:\MY EAC[.FLAC]\Eugenio Finardi - Secret Streets\(7) Beyond The Icy Rings Of Saturn - Eugenio Finardi.flac
     Pre-gap length  0:00:04.00
     Peak level 100.0 %
     Extraction speed 3.3 X
     Track quality 100.0 %
     Test CRC FFA2804B
     Copy CRC FFA2804B
     Accurately ripped (confidence 1)  [988E1192]  (AR v1)
     Copy OK
Track  8
     Filename H:\MY EAC[.FLAC]\Eugenio Finardi - Secret Streets\(8) Warsaw - Eugenio Finardi.flac
     Pre-gap length  0:00:02.00
     Peak level 100.0 %
     Extraction speed 3.3 X
     Track quality 100.0 %
     Test CRC 873AC5A7
     Copy CRC 873AC5A7
     Accurately ripped (confidence 1)  [60186D8C]  (AR v1)
     Copy OK
Track  9
     Filename H:\MY EAC[.FLAC]\Eugenio Finardi - Secret Streets\(9) A Blues for the Eighties - Eugenio Finardi.flac
     Pre-gap length  0:00:02.66
     Peak level 91.8 %
     Extraction speed 3.4 X
     Track quality 100.0 %
     Test CRC EB2592B3
     Copy CRC EB2592B3
     Accurately ripped (confidence 1)  [08346B8D]  (AR v1)
     Copy OK
All tracks accurately ripped
No errors occurred
End of status report
==== Log checksum 058A155201AD8DFB0C8D59CE0A8971D9DA5E38557BDCCB3F1F626133F34A7324 ====
Код:
REM GENRE Rock
PERFORMER "Eugenio Finardi"
TITLE "Secret Streets"
FILE "(1) Hostages - Eugenio Finardi.wav" WAVE
REM DATE 1989
REM DISCID 72089809
REM COMMENT "ExactAudioCopy v1.0b3"
  TRACK 01 AUDIO
    TITLE "Hostages"
    PERFORMER "Eugenio Finardi"
    PREGAP 00:00:32
    INDEX 01 00:00:00
  TRACK 02 AUDIO
    TITLE "Corinna"
    PERFORMER "Eugenio Finardi"
    INDEX 00 03:46:25
FILE "(2) Corinna - Eugenio Finardi.wav" WAVE
    INDEX 01 00:00:00
  TRACK 03 AUDIO
    TITLE "Secret Streets"
    PERFORMER "Eugenio Finardi"
    INDEX 00 03:20:25
FILE "(3) Secret Streets - Eugenio Finardi.wav" WAVE
    INDEX 01 00:00:00
  TRACK 04 AUDIO
    TITLE "Mayday"
    PERFORMER "Eugenio Finardi"
    INDEX 00 06:30:12
FILE "(4) Mayday - Eugenio Finardi.wav" WAVE
    INDEX 01 00:00:00
  TRACK 05 AUDIO
    TITLE "Rock Seeds"
    PERFORMER "Eugenio Finardi"
    INDEX 00 04:21:00
FILE "(5) Rock Seeds - Eugenio Finardi.wav" WAVE
    INDEX 01 00:00:00
  TRACK 06 AUDIO
    TITLE "Love to Make Love to You"
    PERFORMER "Eugenio Finardi"
    INDEX 00 03:45:00
FILE "(6) Love to Make Love to You - Eugenio Finardi.wav" WAVE
    INDEX 01 00:00:00
  TRACK 07 AUDIO
    TITLE "Beyond The Icy Rings Of Saturn"
    PERFORMER "Eugenio Finardi"
    INDEX 00 03:09:62
FILE "(7) Beyond The Icy Rings Of Saturn - Eugenio Finardi.wav" WAVE
    INDEX 01 00:00:00
  TRACK 08 AUDIO
    TITLE "Warsaw"
    PERFORMER "Eugenio Finardi"
    INDEX 00 04:19:50
FILE "(8) Warsaw - Eugenio Finardi.wav" WAVE
    INDEX 01 00:00:00
  TRACK 09 AUDIO
    TITLE "A Blues for the Eighties"
    PERFORMER "Eugenio Finardi"
    INDEX 00 03:35:50
FILE "(9) A Blues for the Eighties - Eugenio Finardi.wav" WAVE
    INDEX 01 00:00:00
EUGENIO FINARDI has been a great Italian Rocker for all 80's.
His band was one of most advanced Italian Rock groups.
Jazz, progressive rock, the music of Eugenio Finardi was loved also for the words, words of freedom, revolution, alternative stylife. Unfortunately, Eugenio Finardi declares himself a drug addicted: the fashion of the 80's Italian 'flower child',become a problem.
Правила, инструкции, FAQ!!!
Торрент  Добавлен [26 мар 2019, 19:55] Скачать торрент Магнет ссылка
Скачать торрент
[ Размер 18.85 КБ / Просмотров 3 ]

Статус
Проверен 
 
Размер  223.24 МБ
Приватный: Нет (DHT включён)
.torrent скачан  0
 


     Отправить личное сообщение
   
Страница 1 из 1
Показать сообщения за:  Поле сортировки  
Начать новую тему Ответить на тему


Сейчас этот форум просматривают: нет зарегистрированных пользователей и гости: 0


Вы не можете начинать темы
Вы не можете отвечать на сообщения
Вы не можете редактировать свои сообщения
Вы не можете удалять свои сообщения
Вы не можете добавлять вложения

Перейти:  
cron