Начать новую тему Ответить на тему
Статистика раздачи
Размер: 392.27 МБ | Добавлен: 26 мар 2019, 20:25 | Скачали: 1
Сидеров: 0  [0 байт/сек]    Личеров: 0  [0 байт/сек]
Пред. тема | След. тема 

Автор
Сообщение

СообщениеДобавлено: 26 мар 2019, 20:25 

Ответить с цитатой 

Elvis Costello - When I Was Cruel
Жанр: Rock/Pop Rock
Год выпуска диска: 2002
Производитель диска: Island Records US 314-586 775-2
Аудио кодек: FLAC
Тип рипа: tracks+.cue
Битрейт аудио: lossless
Продолжительность: 63:02:25
Трэклист:
01 45 3:33
02 Spooky Girlfriend 4:22
03 Tear Off Your Own Head (It's A Doll Revolution) 3:31
04 When I Was Cruel No. 2 7:06
05 Soul For Hire 3:55
06 15 Petals 4:01
07 Tart 4:03
08 Dust 2... 3:21
09 Dissolve 2:23
10 Alibi 6:42
11 ...Dust 3:04
12 Daddy Can I Turn This? 3:41
13 My Little Blue Window 3:10
14 Episode Of Blonde 5:03
15 Radio Silence 4:58
Доп. информация: When I Was Cruel - двадцатый студийный альбом Элвиса Костелло, записанный в 2001-2002 гг. и выпущенный в США Island Records 23 апреля 2002. Хотя официально он считается соло альбомом, это первая запись с его новой группой The Imposters, отличающейся от его предыдущей группы the Attractions только бас гитаристом. После ссоры с Костелло, бас гитарист Брюс Томас был заменен на Дэйви Фарагера из группы Cracker. Альбом включает два хит сингла "45' и "15 Petals".
Elvis Costello – vocals, guitars, horn arrangements on 6 11 14, melodica, cymbal, bass, piano, harmonica
Steve Nieve – organ, pianet, piano, vibraphone, melodica, filters
Davey Faragher – bass, handclaps
Pete Thomas – drums, handclaps, percussion, shaker, tambourine
Код:
Exact Audio Copy V0.99 prebeta 5 from 4. May 2009
EAC extraction logfile from 7. March 2010, 17:21
Elvis Costello / When I Was Cruel
Used drive  : MATSHITABD-MLT UJ-210S   Adapter: 1  ID: 0
Read mode               : Secure
Utilize accurate stream : Yes
Defeat audio cache      : Yes
Make use of C2 pointers : No
Read offset correction                      : 102
Overread into Lead-In and Lead-Out          : No
Fill up missing offset samples with silence : Yes
Delete leading and trailing silent blocks   : No
Null samples used in CRC calculations       : Yes
Used interface                              : Native Win32 interface for Win NT & 2000
Gap handling                                : Appended to previous track
Used output format              : User Defined Encoder
Selected bitrate                : 768 kBit/s
Quality                         : High
Add ID3 tag                     : No
Command line compressor         : C:\Program Files\Exact Audio Copy\FLAC\FLAC.EXE
Additional command line options : -8 -V -T "ARTIST=%a" -T "TITLE=%t" -T "ALBUM=%g" -T "DATE=%y" -T "TRACKNUMBER=%n" -T "GENRE=%m" -T "COMMENT=EAC FLAC -8" %s
TOC of the extracted CD
     Track |   Start  |  Length  | Start sector | End sector
    ---------------------------------------------------------
        1  |  0:00.00 |  3:33.45 |         0    |    16019
        2  |  3:33.45 |  4:22.60 |     16020    |    35729
        3  |  7:56.30 |  3:31.50 |     35730    |    51604
        4  | 11:28.05 |  7:06.72 |     51605    |    83626
        5  | 18:35.02 |  3:55.55 |     83627    |   101306
        6  | 22:30.57 |  4:01.35 |    101307    |   119416
        7  | 26:32.17 |  4:03.60 |    119417    |   137701
        8  | 30:36.02 |  3:21.68 |    137702    |   152844
        9  | 33:57.70 |  2:23.00 |    152845    |   163569
       10  | 36:20.70 |  6:42.35 |    163570    |   193754
       11  | 43:03.30 |  3:04.00 |    193755    |   207554
       12  | 46:07.30 |  3:41.62 |    207555    |   224191
       13  | 49:49.17 |  3:10.53 |    224192    |   238494
       14  | 52:59.70 |  5:03.47 |    238495    |   261266
       15  | 58:03.42 |  4:58.43 |    261267    |   283659
Track  1
     Filename D:\Elvis Costello - When I was cruel\01. Elvis Costello – 45.wav
     Pre-gap length  0:00:02.00
     Peak level 100.0 %
     Track quality 100.0 %
     Test CRC 1FA32B39
     Copy CRC 1FA32B39
     Accurately ripped (confidence 5)  [8FB76BAB]
     Copy OK
Track  2
     Filename D:\Elvis Costello - When I was cruel\02. Elvis Costello – Spooky Girlfriend.wav
     Pre-gap length  0:00:01.17
     Peak level 99.9 %
     Track quality 100.0 %
     Test CRC 87FD7164
     Copy CRC 87FD7164
     Accurately ripped (confidence 5)  [107CA025]
     Copy OK
Track  3
     Filename D:\Elvis Costello - When I was cruel\03. Elvis Costello – Tear Off Your Own Head.wav
     Peak level 100.0 %
     Track quality 100.0 %
     Test CRC F2302A2A
     Copy CRC F2302A2A
     Accurately ripped (confidence 5)  [B5453F0C]
     Copy OK
Track  4
     Filename D:\Elvis Costello - When I was cruel\04. Elvis Costello – When I Was Cruel No. 2.wav
     Peak level 100.0 %
     Track quality 100.0 %
     Test CRC 164E4029
     Copy CRC 164E4029
     Accurately ripped (confidence 5)  [16A4958C]
     Copy OK
Track  5
     Filename D:\Elvis Costello - When I was cruel\05. Elvis Costello – Soul For Hire.wav
     Peak level 100.0 %
     Track quality 100.0 %
     Test CRC B35D30A1
     Copy CRC B35D30A1
     Accurately ripped (confidence 5)  [263683A8]
     Copy OK
Track  6
     Filename D:\Elvis Costello - When I was cruel\06. Elvis Costello – 15 Petals.wav
     Peak level 100.0 %
     Track quality 100.0 %
     Test CRC 077A6457
     Copy CRC 077A6457
     Accurately ripped (confidence 5)  [0C7B0F78]
     Copy OK
Track  7
     Filename D:\Elvis Costello - When I was cruel\07. Elvis Costello – Tart.wav
     Peak level 100.0 %
     Track quality 100.0 %
     Test CRC 5824CC32
     Copy CRC 5824CC32
     Accurately ripped (confidence 5)  [80D2F2FE]
     Copy OK
Track  8
     Filename D:\Elvis Costello - When I was cruel\08. Elvis Costello – Dust 2....wav
     Peak level 100.0 %
     Track quality 99.9 %
     Test CRC C7D7FCDF
     Copy CRC C7D7FCDF
     Accurately ripped (confidence 5)  [90540034]
     Copy OK
Track  9
     Filename D:\Elvis Costello - When I was cruel\09. Elvis Costello – Dissolve.wav
     Peak level 100.0 %
     Track quality 100.0 %
     Test CRC 4FDEDAF4
     Copy CRC 4FDEDAF4
     Accurately ripped (confidence 5)  [353E7469]
     Copy OK
Track 10
     Filename D:\Elvis Costello - When I was cruel\10. Elvis Costello – Alibi.wav
     Peak level 100.0 %
     Track quality 99.9 %
     Test CRC 33191F51
     Copy CRC 33191F51
     Accurately ripped (confidence 5)  [72822717]
     Copy OK
Track 11
     Filename D:\Elvis Costello - When I was cruel\11. Elvis Costello – ...Dust.wav
     Peak level 100.0 %
     Track quality 100.0 %
     Test CRC 46249D0A
     Copy CRC 46249D0A
     Accurately ripped (confidence 5)  [F75334B2]
     Copy OK
Track 12
     Filename D:\Elvis Costello - When I was cruel\12. Elvis Costello – Daddy Can I Turn This .wav
     Peak level 100.0 %
     Track quality 99.9 %
     Test CRC 836E35BA
     Copy CRC 836E35BA
     Accurately ripped (confidence 5)  [C2DA7477]
     Copy OK
Track 13
     Filename D:\Elvis Costello - When I was cruel\13. Elvis Costello – My Little Blue Window.wav
     Peak level 100.0 %
     Track quality 100.0 %
     Test CRC DA7C6576
     Copy CRC DA7C6576
     Accurately ripped (confidence 5)  [82006791]
     Copy OK
Track 14
     Filename D:\Elvis Costello - When I was cruel\14. Elvis Costello – Episode Of Blonde.wav
     Peak level 100.0 %
     Track quality 100.0 %
     Test CRC E7B0629C
     Copy CRC E7B0629C
     Accurately ripped (confidence 5)  [E958BD68]
     Copy OK
Track 15
     Filename D:\Elvis Costello - When I was cruel\15. Elvis Costello – Radio Silence.wav
     Pre-gap length  0:00:01.86
     Peak level 100.0 %
     Track quality 100.0 %
     Test CRC 7B5978FF
     Copy CRC 7B5978FF
     Accurately ripped (confidence 5)  [9AE0ABED]
     Copy OK
All tracks accurately ripped
No errors occurred
End of status report
REM DATE 2002
REM DISCID E50EC60F
REM COMMENT "ExactAudioCopy v0.99pb5"
PERFORMER "Elvis Costello"
TITLE "When I Was Cruel"
FILE "01. Elvis Costello – 45.wav" WAVE
TRACK 01 AUDIO
TITLE "45"
PERFORMER "Elvis Costello"
INDEX 01 00:00:00
TRACK 02 AUDIO
TITLE "Spooky Girlfriend"
PERFORMER "Elvis Costello"
INDEX 00 03:32:32
FILE "02. Elvis Costello – Spooky Girlfriend.wav" WAVE
INDEX 01 00:00:00
FILE "03. Elvis Costello – Tear Off Your Own Head.wav" WAVE
TRACK 03 AUDIO
TITLE "Tear Off Your Own Head"
PERFORMER "Elvis Costello"
INDEX 01 00:00:00
FILE "04. Elvis Costello – When I Was Cruel No. 2.wav" WAVE
TRACK 04 AUDIO
TITLE "When I Was Cruel No. 2"
PERFORMER "Elvis Costello"
INDEX 01 00:00:00
FILE "05. Elvis Costello – Soul For Hire.wav" WAVE
TRACK 05 AUDIO
TITLE "Soul For Hire"
PERFORMER "Elvis Costello"
INDEX 01 00:00:00
FILE "06. Elvis Costello – 15 Petals.wav" WAVE
TRACK 06 AUDIO
TITLE "15 Petals"
PERFORMER "Elvis Costello"
INDEX 01 00:00:00
FILE "07. Elvis Costello – Tart.wav" WAVE
TRACK 07 AUDIO
TITLE "Tart"
PERFORMER "Elvis Costello"
INDEX 01 00:00:00
FILE "08. Elvis Costello – Dust 2....wav" WAVE
TRACK 08 AUDIO
TITLE "Dust 2..."
PERFORMER "Elvis Costello"
INDEX 01 00:00:00
FILE "09. Elvis Costello – Dissolve.wav" WAVE
TRACK 09 AUDIO
TITLE "Dissolve"
PERFORMER "Elvis Costello"
INDEX 01 00:00:00
FILE "10. Elvis Costello – Alibi.wav" WAVE
TRACK 10 AUDIO
TITLE "Alibi"
PERFORMER "Elvis Costello"
INDEX 01 00:00:00
FILE "11. Elvis Costello – ...Dust.wav" WAVE
TRACK 11 AUDIO
TITLE "...Dust"
PERFORMER "Elvis Costello"
INDEX 01 00:00:00
FILE "12. Elvis Costello – Daddy Can I Turn This .wav" WAVE
TRACK 12 AUDIO
TITLE "Daddy Can I Turn This?"
PERFORMER "Elvis Costello"
INDEX 01 00:00:00
FILE "13. Elvis Costello – My Little Blue Window.wav" WAVE
TRACK 13 AUDIO
TITLE "My Little Blue Window"
PERFORMER "Elvis Costello"
INDEX 01 00:00:00
FILE "14. Elvis Costello – Episode Of Blonde.wav" WAVE
TRACK 14 AUDIO
TITLE "Episode Of Blonde"
PERFORMER "Elvis Costello"
INDEX 01 00:00:00
TRACK 15 AUDIO
TITLE "Radio Silence"
PERFORMER "Elvis Costello"
INDEX 00 05:01:57
FILE "15. Elvis Costello – Radio Silence.wav" WAVE
INDEX 01 00:00:00
Правила, инструкции, FAQ!!!
Торрент  Добавлен [26 мар 2019, 20:25] Скачать торрент Магнет ссылка
Скачать торрент
[ Размер 16.93 КБ / Просмотров 4 ]

Статус
Проверен 
 
Размер  392.27 МБ
Приватный: Нет (DHT включён)
.torrent скачан  1
 


     Отправить личное сообщение
   
Страница 1 из 1
Показать сообщения за:  Поле сортировки  
Начать новую тему Ответить на тему


Сейчас этот форум просматривают: нет зарегистрированных пользователей и гости: 0


Вы не можете начинать темы
Вы не можете отвечать на сообщения
Вы не можете редактировать свои сообщения
Вы не можете удалять свои сообщения
Вы не можете добавлять вложения

Перейти:  
cron