Начать новую тему Ответить на тему
Статистика раздачи
Размер: 345.47 МБ | Добавлен: 26 мар 2019, 20:59 | Скачали: 0
Сидеров: 0  [0 байт/сек]    Личеров: 0  [0 байт/сек]
Пред. тема | След. тема 

Автор
Сообщение

СообщениеДобавлено: 26 мар 2019, 20:59 

Ответить с цитатой 

Eagle Eye Cherry - Sub Rosa
Жанр: Rock
Год выпуска диска: 2003
Аудио кодек: FLAC
Тип рипа: tracks+.cue
Битрейт аудио: lossless
Продолжительность: 55:17
Трэклист:
1 This Paralysis
2 Skull Tattoo
3 The Strange
4 It's Up To You
5 Don't Give Up
6 How Come
7 Feels So Right
8 Crashing Down
9 Twisted Games
10 The Food Song
11 If It Can't Be Found
12 If You Don't Know By Now
EAC extraction logfile from 24. November 2007, 11:14 for CD
Eagle-Eye Cherry / Sub Rosa
Used drive : SAMSUNG CDRW/DVD SN-324S Adapter: 1 ID: 0
Read mode : Secure with C2, accurate stream, disable cache
Read offset correction : 6
Overread into Lead-In and Lead-Out : No
Used output format : C:\Program Files\Exact Audio Copy\flac-1.1.4-win\bin\flac.exe (User Defined Encoder)
160 kBit/s
Additional command line options : -8 -A tukey(0.25) -A gauss(0.1875) -b 4096 -V -T "artist=%a" -T "title=%t" -T "album=%g" -T "date=%y" -T "tracknumber=%n" -T "genre=%m" %s --sector-align
Other options :
Fill up missing offset samples with silence : Yes
Delete leading and trailing silent blocks : No
Installed external ASPI interface
Track 1
Filename C:\Documents and Settings\Bob\Desktop\Torrents\Eagle-Eye_Cherry_-_Sub_Rosa\01 - This Paralysis.wav
Pre-gap length 0:00:02.00
Peak level 98.8 %
Track quality 100.0 %
Test CRC EE5A74D5
Copy CRC EE5A74D5
Copy OK
Track 2
Filename C:\Documents and Settings\Bob\Desktop\Torrents\Eagle-Eye_Cherry_-_Sub_Rosa\02 - Skull Tattoo.wav
Pre-gap length 0:00:02.00
Peak level 98.8 %
Track quality 100.0 %
Test CRC ABA53BAA
Copy CRC ABA53BAA
Copy OK
Track 3
Filename C:\Documents and Settings\Bob\Desktop\Torrents\Eagle-Eye_Cherry_-_Sub_Rosa\03 - The Strange.wav
Pre-gap length 0:00:02.00
Peak level 98.8 %
Track quality 100.0 %
Test CRC 40B84756
Copy CRC 40B84756
Copy OK
Track 4
Filename C:\Documents and Settings\Bob\Desktop\Torrents\Eagle-Eye_Cherry_-_Sub_Rosa\04 - Up To You.wav
Pre-gap length 0:00:02.00
Peak level 98.8 %
Track quality 100.0 %
Test CRC D18FA13A
Copy CRC D18FA13A
Copy OK
Track 5
Filename C:\Documents and Settings\Bob\Desktop\Torrents\Eagle-Eye_Cherry_-_Sub_Rosa\05 - Don't Give Up.wav
Pre-gap length 0:00:02.00
Peak level 98.8 %
Track quality 100.0 %
Test CRC 9A388B40
Copy CRC 9A388B40
Copy OK
Track 6
Filename C:\Documents and Settings\Bob\Desktop\Torrents\Eagle-Eye_Cherry_-_Sub_Rosa\06 - How Come.wav
Pre-gap length 0:00:02.00
Peak level 98.8 %
Track quality 100.0 %
Test CRC 0ED437C4
Copy CRC 0ED437C4
Copy OK
Track 7
Filename C:\Documents and Settings\Bob\Desktop\Torrents\Eagle-Eye_Cherry_-_Sub_Rosa\07 - Feels So Right.wav
Pre-gap length 0:00:02.00
Peak level 91.3 %
Track quality 100.0 %
Test CRC C1A83F1A
Copy CRC C1A83F1A
Copy OK
Track 8
Filename C:\Documents and Settings\Bob\Desktop\Torrents\Eagle-Eye_Cherry_-_Sub_Rosa\08 - Crashing Down.wav
Pre-gap length 0:00:02.00
Peak level 98.8 %
Track quality 100.0 %
Test CRC 8688D390
Copy CRC 8688D390
Copy OK
Track 9
Filename C:\Documents and Settings\Bob\Desktop\Torrents\Eagle-Eye_Cherry_-_Sub_Rosa\09 - Twisted Games.wav
Pre-gap length 0:00:02.00
Peak level 98.8 %
Track quality 100.0 %
Test CRC 00B338E5
Copy CRC 00B338E5
Copy OK
Track 10
Filename C:\Documents and Settings\Bob\Desktop\Torrents\Eagle-Eye_Cherry_-_Sub_Rosa\10 - The Food Song.wav
Pre-gap length 0:00:02.00
Peak level 98.8 %
Track quality 100.0 %
Test CRC 9A584F88
Copy CRC 9A584F88
Copy OK
Track 11
Filename C:\Documents and Settings\Bob\Desktop\Torrents\Eagle-Eye_Cherry_-_Sub_Rosa\11 - If It Can't Be Found.wav
Pre-gap length 0:00:02.00
Peak level 98.8 %
Track quality 100.0 %
Test CRC 1DC92EC3
Copy CRC 1DC92EC3
Copy OK
Track 12
Filename C:\Documents and Settings\Bob\Desktop\Torrents\Eagle-Eye_Cherry_-_Sub_Rosa\12 - If You Don't Know By Now.wav
Pre-gap length 0:00:02.00
Peak level 98.8 %
Track quality 100.0 %
Test CRC 1C0AF76A
Copy CRC 1C0AF76A
Copy OK
No errors occured
End of status report
------------------------------------------------------------
EAC extraction logfile from 24. November 2007, 11:14 for CD
Eagle-Eye Cherry / Sub Rosa
Used drive : SAMSUNG CDRW/DVD SN-324S Adapter: 1 ID: 0
Read mode : Secure with C2, accurate stream, disable cache
Read offset correction : 6
Overread into Lead-In and Lead-Out : No
Used output format : C:\Program Files\Exact Audio Copy\flac-1.1.4-win\bin\flac.exe (User Defined Encoder)
160 kBit/s
Additional command line options : -8 -A tukey(0.25) -A gauss(0.1875) -b 4096 -V -T "artist=%a" -T "title=%t" -T "album=%g" -T "date=%y" -T "tracknumber=%n" -T "genre=%m" %s --sector-align
Other options :
Fill up missing offset samples with silence : Yes
Delete leading and trailing silent blocks : No
Installed external ASPI interface
Track 1
Filename C:\Documents and Settings\Bob\Desktop\Torrents\Eagle-Eye_Cherry_-_Sub_Rosa\01 - This Paralysis.wav
Pre-gap length 0:00:02.00
Peak level 98.8 %
Track quality 100.0 %
Test CRC EE5A74D5
Copy CRC EE5A74D5
Copy OK
Track 2
Filename C:\Documents and Settings\Bob\Desktop\Torrents\Eagle-Eye_Cherry_-_Sub_Rosa\02 - Skull Tattoo.wav
Pre-gap length 0:00:02.00
Peak level 98.8 %
Track quality 100.0 %
Test CRC ABA53BAA
Copy CRC ABA53BAA
Copy OK
Track 3
Filename C:\Documents and Settings\Bob\Desktop\Torrents\Eagle-Eye_Cherry_-_Sub_Rosa\03 - The Strange.wav
Pre-gap length 0:00:02.00
Peak level 98.8 %
Track quality 100.0 %
Test CRC 40B84756
Copy CRC 40B84756
Copy OK
Track 4
Filename C:\Documents and Settings\Bob\Desktop\Torrents\Eagle-Eye_Cherry_-_Sub_Rosa\04 - Up To You.wav
Pre-gap length 0:00:02.00
Peak level 98.8 %
Track quality 100.0 %
Test CRC D18FA13A
Copy CRC D18FA13A
Copy OK
Track 5
Filename C:\Documents and Settings\Bob\Desktop\Torrents\Eagle-Eye_Cherry_-_Sub_Rosa\05 - Don't Give Up.wav
Pre-gap length 0:00:02.00
Peak level 98.8 %
Track quality 100.0 %
Test CRC 9A388B40
Copy CRC 9A388B40
Copy OK
Track 6
Filename C:\Documents and Settings\Bob\Desktop\Torrents\Eagle-Eye_Cherry_-_Sub_Rosa\06 - How Come.wav
Pre-gap length 0:00:02.00
Peak level 98.8 %
Track quality 100.0 %
Test CRC 0ED437C4
Copy CRC 0ED437C4
Copy OK
Track 7
Filename C:\Documents and Settings\Bob\Desktop\Torrents\Eagle-Eye_Cherry_-_Sub_Rosa\07 - Feels So Right.wav
Pre-gap length 0:00:02.00
Peak level 91.3 %
Track quality 100.0 %
Test CRC C1A83F1A
Copy CRC C1A83F1A
Copy OK
Track 8
Filename C:\Documents and Settings\Bob\Desktop\Torrents\Eagle-Eye_Cherry_-_Sub_Rosa\08 - Crashing Down.wav
Pre-gap length 0:00:02.00
Peak level 98.8 %
Track quality 100.0 %
Test CRC 8688D390
Copy CRC 8688D390
Copy OK
Track 9
Filename C:\Documents and Settings\Bob\Desktop\Torrents\Eagle-Eye_Cherry_-_Sub_Rosa\09 - Twisted Games.wav
Pre-gap length 0:00:02.00
Peak level 98.8 %
Track quality 100.0 %
Test CRC 00B338E5
Copy CRC 00B338E5
Copy OK
Track 10
Filename C:\Documents and Settings\Bob\Desktop\Torrents\Eagle-Eye_Cherry_-_Sub_Rosa\10 - The Food Song.wav
Pre-gap length 0:00:02.00
Peak level 98.8 %
Track quality 100.0 %
Test CRC 9A584F88
Copy CRC 9A584F88
Copy OK
Track 11
Filename C:\Documents and Settings\Bob\Desktop\Torrents\Eagle-Eye_Cherry_-_Sub_Rosa\11 - If It Can't Be Found.wav
Pre-gap length 0:00:02.00
Peak level 98.8 %
Track quality 100.0 %
Test CRC 1DC92EC3
Copy CRC 1DC92EC3
Copy OK
Track 12
Filename C:\Documents and Settings\Bob\Desktop\Torrents\Eagle-Eye_Cherry_-_Sub_Rosa\12 - If You Don't Know By Now.wav
Pre-gap length 0:00:02.00
Peak level 98.8 %
Track quality 100.0 %
Test CRC 1C0AF76A
Copy CRC 1C0AF76A
Copy OK
No errors occured
End of status report
Доп. информация:
Sub Rosa is a 2003 album by Eagle Eye Cherry, his third studio album.
Combining his most mature set of songs to date with the most widescreen production of his career, Cherry's third album, Sub Rosa, finds him expanding the boundaries of his artistry and boldly challenging our preconceptions.
"I'd hesitate to say there's been a master plan," he says. "But you can definitely trace a journey through my records. If there's a theme to Sub Rosa it's asking 'what road are we going down?' It's a cynical world and people don't want to be preached at. But there are a lot of questions that need to be asked right now."
Sub Rosa comes on the back of Eagle-Eye's first real break in five years, following the hectic schedule that engulfed him after his 1998 breakthrough hit, "Save Tonight". The time off gave him the opportunity to take stock personally and to take a look around at the much-changed world in which we now live.
"I got back home in early 2002 and was able to sort through a lot of stuff," he explains. "On the road you live in a bubble and you have to put a lot of things on the back-burner and decide to deal with them later. I needed to take a break and to clear out the closet."
The result is a collection of songs that are still highly personal but are also full of acute observation of the world around us. "Quite a few of the songs like 'Be Like That' and 'How Come' touch on the question of where we're headed," he says. "There's some despair at what's happening in the world right now. But there's optimism in there, too. With a song like 'Don't Give Up', I wanted to send out a message, like "Give Peace A Chance". It's saying 'there's always hope'. You can apply that in different ways. It would be fun to imagine a crowd at a soccer match singing it when their team is losing, for example. "
Sub Rosa is also an album of stories, peopled by interesting characters. "The Strange", for example, was written one day in New York, just sitting in Central Park and people watching. "Skull Tattoo" has a similar inspiration. "People have asked me who the woman is in that song," Eagle-Eye says. "But she was just someone I saw on the street."
Правила, инструкции, FAQ!!!
Торрент  Добавлен [26 мар 2019, 20:59] Скачать торрент Магнет ссылка
Скачать торрент
[ Размер 14.7 КБ / Просмотров 3 ]

Статус
Проверен 
 
Размер  345.47 МБ
Приватный: Нет (DHT включён)
.torrent скачан  0
 


     Отправить личное сообщение
   
Страница 1 из 1
Показать сообщения за:  Поле сортировки  
Начать новую тему Ответить на тему


Сейчас этот форум просматривают: нет зарегистрированных пользователей и гости: 0


Вы не можете начинать темы
Вы не можете отвечать на сообщения
Вы не можете редактировать свои сообщения
Вы не можете удалять свои сообщения
Вы не можете добавлять вложения

Перейти:  
cron