Начать новую тему Ответить на тему
Статистика раздачи
Размер: 339.58 МБ | Добавлен: 26 мар 2019, 21:07 | Скачали: 0
Сидеров: 1  [0 байт/сек]    Личеров: 0  [0 байт/сек]
Пред. тема | След. тема 

Автор
Сообщение

СообщениеДобавлено: 26 мар 2019, 21:07 

Ответить с цитатой 

Duran Duran - Rio (Remastered)
Страна: USA
Жанр: Rock
Год выпуска: 1990
Формат: FLAC (tracks)
Битрейт аудио: lossless
Продолжительность: 42:39
Трэклист:
1. Rio
2. My Own Way
3. Lonely In Your Nightmare
4. Hungry Like The Wolf
5. Hold Back The Rain
6. New Religion
7. Last Chance On The Stairway
8. Save A Prayer
9. The Chauffeur
Доп. информация: Рип Fizz, в комплекте cue, log, m3u, nfo, sfv, сканы обложки и диска.
EAC extraction logfile from 21. February 2007, 7:37 for CD
Duran Duran / Rio (Remastered)
Used drive : LITE-ON COMBO SOHC-5232K Adapter: 0 ID: 1
Read mode : Secure with NO C2, accurate stream, disable cache
Read offset correction : 6
Overread into Lead-In and Lead-Out : No
Used output format : C:\Program Files\FLAC\flac.exe (User Defined Encoder)
320 kBit/s
Additional command line options : -6 -V -T "artist=%a" -T "title=%t" -T "album=%g" -T "date=%y" -T "tracknumber=%n" -T "genre=%m" -T comment="%e" -T "comment=EAC (Secure Mode)" %s
Other options :
Fill up missing offset samples with silence : Yes
Delete leading and trailing silent blocks : No
Installed external ASPI interface
Track 1
Filename I:\ARTIST COMPILATIONS\01 - Rio.wav
Pre-gap length 0:00:02.00
Peak level 97.0 %
Track quality 99.9 %
Test CRC 2D3678FF
Copy CRC 2D3678FF
Copy OK
Track 2
Filename I:\ARTIST COMPILATIONS\02 - My Own Way.wav
Peak level 97.1 %
Track quality 100.0 %
Test CRC 9BE0465B
Copy CRC 9BE0465B
Copy OK
Track 3
Filename I:\ARTIST COMPILATIONS\03 - Lonely In Your Nightmare.wav
Peak level 97.0 %
Track quality 100.0 %
Test CRC 402E1443
Copy CRC 402E1443
Copy OK
Track 4
Filename I:\ARTIST COMPILATIONS\04 - Hungry Like The Wolf.wav
Peak level 97.1 %
Track quality 99.9 %
Test CRC 7E96DD6E
Copy CRC 7E96DD6E
Copy OK
Track 5
Filename I:\ARTIST COMPILATIONS\05 - Hold Back The Rain.wav
Peak level 97.1 %
Track quality 100.0 %
Test CRC C6AEC589
Copy CRC C6AEC589
Copy OK
Track 6
Filename I:\ARTIST COMPILATIONS\06 - New Religion.wav
Peak level 97.1 %
Track quality 99.8 %
Test CRC 36EFAD23
Copy CRC 36EFAD23
Copy OK
Track 7
Filename I:\ARTIST COMPILATIONS\07 - Last Chance On The Stairway.wav
Peak level 97.1 %
Track quality 100.0 %
Test CRC E3341DB3
Copy CRC E3341DB3
Copy OK
Track 8
Filename I:\ARTIST COMPILATIONS\08 - Save A Prayer.wav
Peak level 97.0 %
Track quality 99.9 %
Test CRC FD654A75
Copy CRC FD654A75
Copy OK
Track 9
Filename I:\ARTIST COMPILATIONS\09 - The Chauffeur.wav
Peak level 97.0 %
Track quality 99.9 %
Test CRC 7E4148F1
Copy CRC 7E4148F1
Copy OK
No errors occured
End of status report
Track Ripping Status [Disc ID: 00106fab-7210e80a]
1 Accurately Ripped (confidence 4) [c8f641f1]
2 Accurately Ripped (confidence 4) [e8b78f4b]
3 Accurately Ripped (confidence 4) [983b20e1]
4 Accurately Ripped (confidence 4) [0547ee06]
5 Accurately Ripped (confidence 4) [5cdd9748]
6 Accurately Ripped (confidence 4) [d59594b9]
7 Accurately Ripped (confidence 4) [b738a2e7]
8 Accurately Ripped (confidence 4) [5edbd978]
9 Accurately Ripped (confidence 4) [38ea6123]
_______________________
All Tracks Accurately Ripped.


Правила, инструкции, FAQ!!!
Торрент  Добавлен [26 мар 2019, 21:07] Скачать торрент Магнет ссылка
Скачать торрент
[ Размер 14.96 КБ / Просмотров 4 ]

Статус
Проверен 
 
Размер  339.58 МБ
Приватный: Нет (DHT включён)
.torrent скачан  0
 


     Отправить личное сообщение
   
Страница 1 из 1
Показать сообщения за:  Поле сортировки  
Начать новую тему Ответить на тему


Сейчас этот форум просматривают: нет зарегистрированных пользователей и гости: 0


Вы не можете начинать темы
Вы не можете отвечать на сообщения
Вы не можете редактировать свои сообщения
Вы не можете удалять свои сообщения
Вы не можете добавлять вложения

Перейти:  
cron