Начать новую тему Ответить на тему
Статистика раздачи
Размер: 383.19 МБ | Добавлен: 26 мар 2019, 18:42 | Скачали: 0
Сидеров: 0  [0 байт/сек]    Личеров: 0  [0 байт/сек]
Пред. тема | След. тема 

Автор
Сообщение

СообщениеДобавлено: 26 мар 2019, 18:42 

Ответить с цитатой 

Duman / Belki Alışman Lazım
Жанр: Rock
Страна-производитель диска: NR1 Müzik
Год издания: 2002
Страна: Turkey
Аудиокодек: FLAC (*.flac)
Тип рипа: tracks+.cue
Битрейт аудио: lossless
Продолжительность: 57:42
Наличие сканов в содержимом раздачи: нет
Треклист:
01 Bu Akşam
02 Her Şeyi Yak
03 Oje
04 Kırmış Kalbini
05 Masal
06 Manası Yok
07 Belki Alışman Lazım
08 Bal
09 Ah
10 Elimdeki Saz Yeter Canıma
11 Haberin Yok Ölüyorum
12 Bu Akşam (Acoustic)
13 Kırmış Kalbini (Hidden Track)
Код:
Exact Audio Copy V1.0 beta 3 from 29. August 2011
EAC extraction logfile from 25. November 2012, 2:30
Duman / Belki Alışman Lazım
Used drive  : HL-DT-STDVDRRW GWA-4164B   Adapter: 0  ID: 0
Read mode               : Secure
Utilize accurate stream : Yes
Defeat audio cache      : No
Make use of C2 pointers : No
Read offset correction                      : 102
Overread into Lead-In and Lead-Out          : Yes
Fill up missing offset samples with silence : Yes
Delete leading and trailing silent blocks   : No
Null samples used in CRC calculations       : Yes
Used interface                              : Native Win32 interface for Win NT & 2000
Gap handling                                : Appended to previous track
Used output format : Internal WAV Routines
Sample format      : 44.100 Hz; 16 Bit; Stereo
TOC of the extracted CD
     Track |   Start  |  Length  | Start sector | End sector
    ---------------------------------------------------------
        1  |  0:00.00 |  2:55.50 |         0    |    13174
        2  |  2:55.50 |  4:30.21 |     13175    |    33445
        3  |  7:25.71 |  4:20.62 |     33446    |    53007
        4  | 11:46.58 |  4:39.09 |     53008    |    73941
        5  | 16:25.67 |  3:03.55 |     73942    |    87721
        6  | 19:29.47 |  3:47.73 |     87722    |   104819
        7  | 23:17.45 |  3:32.08 |    104820    |   120727
        8  | 26:49.53 |  5:13.55 |    120728    |   144257
        9  | 32:03.33 |  4:53.04 |    144258    |   166236
       10  | 36:56.37 |  4:31.49 |    166237    |   186610
       11  | 41:28.11 |  6:01.06 |    186611    |   213691
       12  | 47:29.17 |  2:55.03 |    213692    |   226819
       13  | 50:24.20 |  7:18.32 |    226820    |   259701
Track  1
     Filename C:\Users\ResulSerkan\LPHT\duman\01 Bu Akşam.wav
     Pre-gap length  0:00:02.00
     Peak level 100.0 %
     Extraction speed 2.8 X
     Track quality 100.0 %
     Test CRC 00A23F4C
     Copy CRC 00A23F4C
     Accurately ripped (confidence 2)  [764BB336]  (AR v2)
     Copy OK
Track  2
     Filename C:\Users\ResulSerkan\LPHT\duman\02 Her Şeyi Yak.wav
     Pre-gap length  0:00:03.68
     Peak level 100.0 %
     Extraction speed 3.0 X
     Track quality 100.0 %
     Test CRC D285D488
     Copy CRC D285D488
     Accurately ripped (confidence 2)  [DC3F78AF]  (AR v2)
     Copy OK
Track  3
     Filename C:\Users\ResulSerkan\LPHT\duman\03 Oje.wav
     Pre-gap length  0:00:03.18
     Peak level 100.0 %
     Extraction speed 3.2 X
     Track quality 100.0 %
     Test CRC C2181F87
     Copy CRC C2181F87
     Accurately ripped (confidence 2)  [86BA6D2A]  (AR v2)
     Copy OK
Track  4
     Filename C:\Users\ResulSerkan\LPHT\duman\04 Kırmış Kalbini.wav
     Pre-gap length  0:00:02.64
     Peak level 100.0 %
     Extraction speed 3.5 X
     Track quality 100.0 %
     Test CRC 909786FD
     Copy CRC 909786FD
     Accurately ripped (confidence 2)  [4E737E0D]  (AR v2)
     Copy OK
Track  5
     Filename C:\Users\ResulSerkan\LPHT\duman\05 Masal.wav
     Pre-gap length  0:00:03.30
     Peak level 100.0 %
     Extraction speed 3.6 X
     Track quality 100.0 %
     Test CRC 43A78B95
     Copy CRC 43A78B95
     Accurately ripped (confidence 2)  [C0676DEF]  (AR v2)
     Copy OK
Track  6
     Filename C:\Users\ResulSerkan\LPHT\duman\06 Manası Yok.wav
     Pre-gap length  0:00:03.43
     Peak level 100.0 %
     Extraction speed 3.9 X
     Track quality 100.0 %
     Test CRC A29528F1
     Copy CRC A29528F1
     Accurately ripped (confidence 2)  [1A2C1149]  (AR v2)
     Copy OK
Track  7
     Filename C:\Users\ResulSerkan\LPHT\duman\07 Belki Alışman Lazım.wav
     Pre-gap length  0:00:03.04
     Peak level 100.0 %
     Extraction speed 4.0 X
     Track quality 100.0 %
     Test CRC 45BB6F14
     Copy CRC 45BB6F14
     Accurately ripped (confidence 2)  [27DD8080]  (AR v2)
     Copy OK
Track  8
     Filename C:\Users\ResulSerkan\LPHT\duman\08 Bal.wav
     Pre-gap length  0:00:03.00
     Peak level 100.0 %
     Extraction speed 4.0 X
     Track quality 99.9 %
     Test CRC 8BE476ED
     Copy CRC 8BE476ED
     Accurately ripped (confidence 2)  [D035B4A7]  (AR v2)
     Copy OK
Track  9
     Filename C:\Users\ResulSerkan\LPHT\duman\09 Ah.wav
     Pre-gap length  0:00:02.73
     Peak level 100.0 %
     Extraction speed 4.5 X
     Track quality 100.0 %
     Test CRC E083478D
     Copy CRC E083478D
     Accurately ripped (confidence 2)  [D32973A0]  (AR v2)
     Copy OK
Track 10
     Filename C:\Users\ResulSerkan\LPHT\duman\10 Elimdeki Saz Yeter Canıma.wav
     Pre-gap length  0:00:03.21
     Peak level 100.0 %
     Extraction speed 4.7 X
     Track quality 100.0 %
     Test CRC 477B6E77
     Copy CRC 477B6E77
     Accurately ripped (confidence 2)  [888229B0]  (AR v2)
     Copy OK
Track 11
     Filename C:\Users\ResulSerkan\LPHT\duman\11 Haberin Yok Ölüyorum.wav
     Pre-gap length  0:00:02.67
     Peak level 100.0 %
     Extraction speed 3.9 X
     Track quality 99.8 %
     Test CRC 479BC1DC
     Copy CRC 479BC1DC
     Accurately ripped (confidence 2)  [248AB53C]  (AR v2)
     Copy OK
Track 12
     Filename C:\Users\ResulSerkan\LPHT\duman\12 Bu Akşam (Akustik).wav
     Pre-gap length  0:00:03.21
     Peak level 100.0 %
     Extraction speed 5.0 X
     Track quality 100.0 %
     Test CRC 799E90A4
     Copy CRC 799E90A4
     Accurately ripped (confidence 2)  [94D82655]  (AR v2)
     Copy OK
Track 13
     Filename C:\Users\ResulSerkan\LPHT\duman\13 Kırmış Kalbini (Hidden Track).wav
     Pre-gap length  0:00:03.40
     Peak level 100.0 %
     Extraction speed 5.2 X
     Track quality 100.0 %
     Test CRC FA2E6099
     Copy CRC FA2E6099
     Accurately ripped (confidence 2)  [B7B84CCF]  (AR v2)
     Copy OK
All tracks accurately ripped
No errors occurred
End of status report
---- CUETools DB Plugin V2.1.3
[CTDB TOCID: yJfPUspABzHZ2Vjg68mwjE2hZhc-] found, Submit result: already submitted
[8d557937] (3/3) Accurately ripped
==== Log checksum D302B5F1647426834A612365F19EE08D24FFDE603BC888ACAA48C569B311B57D ====
Код:
REM GENRE Rock
REM DATE 2002
REM DISCID B80D860D
REM COMMENT "ExactAudioCopy v1.0b3"
PERFORMER "Duman"
TITLE "Belki Alışman Lazım"
FILE "01 Bu Akşam.wav" WAVE
  TRACK 01 AUDIO
    TITLE "Bu Akşam"
    PERFORMER "Duman"
    INDEX 01 00:00:00
  TRACK 02 AUDIO
    TITLE "Her Şeyi Yak"
    PERFORMER "Duman"
    INDEX 00 02:51:57
FILE "02 Her Şeyi Yak.wav" WAVE
    INDEX 01 00:00:00
  TRACK 03 AUDIO
    TITLE "Oje"
    PERFORMER "Duman"
    INDEX 00 04:27:03
FILE "03 Oje.wav" WAVE
    INDEX 01 00:00:00
  TRACK 04 AUDIO
    TITLE "Kırmış Kalbini"
    PERFORMER "Duman"
    INDEX 00 04:17:73
FILE "04 Kırmış Kalbini.wav" WAVE
    INDEX 01 00:00:00
  TRACK 05 AUDIO
    TITLE "Masal"
    PERFORMER "Duman"
    INDEX 00 04:35:54
FILE "05 Masal.wav" WAVE
    INDEX 01 00:00:00
  TRACK 06 AUDIO
    TITLE "Manası Yok"
    PERFORMER "Duman"
    INDEX 00 03:00:12
FILE "06 Manası Yok.wav" WAVE
    INDEX 01 00:00:00
  TRACK 07 AUDIO
    TITLE "Belki Alışman Lazım"
    PERFORMER "Duman"
    INDEX 00 03:44:69
FILE "07 Belki Alışman Lazım.wav" WAVE
    INDEX 01 00:00:00
  TRACK 08 AUDIO
    TITLE "Bal"
    PERFORMER "Duman"
    INDEX 00 03:29:08
FILE "08 Bal.wav" WAVE
    INDEX 01 00:00:00
  TRACK 09 AUDIO
    TITLE "Ah"
    PERFORMER "Duman"
    INDEX 00 05:10:57
FILE "09 Ah.wav" WAVE
    INDEX 01 00:00:00
  TRACK 10 AUDIO
    TITLE "Elimdeki Saz Yeter Canıma"
    PERFORMER "Duman"
    INDEX 00 04:49:58
FILE "10 Elimdeki Saz Yeter Canıma.wav" WAVE
    INDEX 01 00:00:00
  TRACK 11 AUDIO
    TITLE "Haberin Yok Ölüyorum"
    PERFORMER "Duman"
    INDEX 00 04:28:57
FILE "11 Haberin Yok Ölüyorum.wav" WAVE
    INDEX 01 00:00:00
  TRACK 12 AUDIO
    TITLE "Bu Akşam (Akustik)"
    PERFORMER "Duman"
    INDEX 00 05:57:60
FILE "12 Bu Akşam (Akustik).wav" WAVE
    INDEX 01 00:00:00
  TRACK 13 AUDIO
    TITLE "Kırmış Kalbini (Hidden Track)"
    PERFORMER "Duman"
    INDEX 00 02:51:38
FILE "13 Kırmış Kalbini (Hidden Track).wav" WAVE
    INDEX 01 00:00:00
Правила, инструкции, FAQ!!!
Торрент  Добавлен [26 мар 2019, 18:42] Скачать торрент Магнет ссылка
Скачать торрент
[ Размер 16.24 КБ / Просмотров 2 ]

Статус
Проверен 
 
Размер  383.19 МБ
Приватный: Нет (DHT включён)
.torrent скачан  0
 


     Отправить личное сообщение
   
Страница 1 из 1
Показать сообщения за:  Поле сортировки  
Начать новую тему Ответить на тему


Сейчас этот форум просматривают: нет зарегистрированных пользователей и гости: 0


Вы не можете начинать темы
Вы не можете отвечать на сообщения
Вы не можете редактировать свои сообщения
Вы не можете удалять свои сообщения
Вы не можете добавлять вложения

Перейти:  
cron