Начать новую тему Ответить на тему
Статистика раздачи
Размер: 303.58 МБ | Добавлен: 26 мар 2019, 18:38 | Скачали: 0
Сидеров: 1  [0 байт/сек]    Личеров: 0  [0 байт/сек]
Пред. тема | След. тема 

Автор
Сообщение

СообщениеДобавлено: 26 мар 2019, 18:38 

Ответить с цитатой 

Daniel Lanois - For the Beauty of Wynona
Жанр: Rock
Год выпуска диска: 1993
Страна: Canada
Производитель диска: Warner Bros / 9362-45030-2
Аудио кодек: FLAC
Тип рипа: tracks+.cue
Битрейт аудио: lossless
Продолжительность: 55:06
Наличие сканов в содержимом раздачи:
Трэклист:
01. The Messenger (5:27)
02. Brother L.A. (4:19)
03. Still Learning How To Crawl (5:19)
04. Beatrice (4:21)
05. Waiting (2:00)
06. The Collection Of Marie Claire (4:17)
07. Death Of A Train (5:47)
08. The Unbreakable Chain (4:19)
09. Lotta Love To Give (3:38)
10. Indian Red (3:46)
11. Sleeping In The Devil's Bed (3:02)
12. For the Beauty of Wynona (5:50)
13. Rocky World (2:55)
Состав:
Daniel Lanois – guitar, bass, vocals
Malcolm Burn – guitar, keyboards
Bill Dillon – guitar, mandolin, Guitarorgan M300
Daryl Johnson – bass, percussion, drums, vocals
Ronald Jones – drums
Nicholas Payton – trumpet
Emanual de Casal - bass on "Brother L. A."
Sean Devitt - percussion on "For the Beauty of Wynona"
Доп. информация: http://en.wikipedia.org/wiki/Daniel_Lanois
Код:
Exact Audio Copy V1.0 beta 2 from 29. April 2011
EAC extraction logfile from 22. August 2011, 11:31
Daniel Lanois / For The Beauty Of Wynona
Used drive  : LITE-ON BD B LH-2B1S   Adapter: 3  ID: 0
Read mode               : Secure
Utilize accurate stream : Yes
Defeat audio cache      : Yes
Make use of C2 pointers : No
Read offset correction                      : 618
Overread into Lead-In and Lead-Out          : No
Fill up missing offset samples with silence : Yes
Delete leading and trailing silent blocks   : No
Null samples used in CRC calculations       : Yes
Used interface                              : Native Win32 interface for Win NT & 2000
Gap handling                                : Appended to previous track
Used output format              : User Defined Encoder
Selected bitrate                : 256 kBit/s
Quality                         : High
Add ID3 tag                     : No
Command line compressor         : C:\Program Files (x86)\Exact Audio Copy\Flac\flac.exe
Additional command line options : -8 -V -T "ARTIST=%artist%" -T "TITLE=%title%" -T "ALBUM=%albumtitle%" -T "DATE=%year%" -T "TRACKNUMBER=%tracknr%" -T "TOTALTRACKS=%numtracks%" -T "GENRE=%genre%" -T "ALBUMARTIST=%albumartist%" -T "ALBUM ARTIST=%albumartist%
TOC of the extracted CD
     Track |   Start  |  Length  | Start sector | End sector
    ---------------------------------------------------------
        1  |  0:00.00 |  5:27.43 |         0    |    24567
        2  |  5:27.43 |  4:18.00 |     24568    |    43917
        3  |  9:45.43 |  5:19.05 |     43918    |    67847
        4  | 15:04.48 |  4:21.57 |     67848    |    87479
        5  | 19:26.30 |  1:59.63 |     87480    |    96467
        6  | 21:26.18 |  4:17.00 |     96468    |   115742
        7  | 25:43.18 |  5:47.55 |    115743    |   141822
        8  | 31:30.73 |  4:19.52 |    141823    |   161299
        9  | 35:50.50 |  3:38.43 |    161300    |   177692
       10  | 39:29.18 |  3:46.62 |    177693    |   194704
       11  | 43:16.05 |  3:03.33 |    194705    |   208462
       12  | 46:19.38 |  5:52.00 |    208463    |   234862
       13  | 52:11.38 |  2:54.52 |    234863    |   247964
Track  1
     Filename C:\Users\Qwim\Desktop\Daniel Lanois - For The Beauty of Wynona (1993) [FLAC]\Flac\01 - The Messenger.wav
     Pre-gap length  0:00:02.00
     Peak level 99.9 %
     Extraction speed 4.0 X
     Track quality 100.0 %
     Test CRC 131218E0
     Copy CRC 131218E0
     Accurately ripped (confidence 18)  [A74582CD]  (AR v2)
     Copy OK
Track  2
     Filename C:\Users\Qwim\Desktop\Daniel Lanois - For The Beauty of Wynona (1993) [FLAC]\Flac\02 - Brother L.A..wav
     Pre-gap length  0:00:00.25
     Peak level 98.2 %
     Extraction speed 4.3 X
     Track quality 100.0 %
     Test CRC 082BA2C3
     Copy CRC 082BA2C3
     Accurately ripped (confidence 18)  [3FA6A904]  (AR v2)
     Copy OK
Track  3
     Filename C:\Users\Qwim\Desktop\Daniel Lanois - For The Beauty of Wynona (1993) [FLAC]\Flac\03 - Still Learning How To Crawl.wav
     Pre-gap length  0:00:01.03
     Peak level 99.9 %
     Extraction speed 4.2 X
     Track quality 99.9 %
     Test CRC 5F0FB598
     Copy CRC 5F0FB598
     Accurately ripped (confidence 19)  [9481C452]  (AR v2)
     Copy OK
Track  4
     Filename C:\Users\Qwim\Desktop\Daniel Lanois - For The Beauty of Wynona (1993) [FLAC]\Flac\04 - Beatrice.wav
     Pre-gap length  0:00:01.10
     Peak level 95.2 %
     Extraction speed 5.1 X
     Track quality 100.0 %
     Test CRC A1E1C921
     Copy CRC A1E1C921
     Accurately ripped (confidence 19)  [577565DC]  (AR v2)
     Copy OK
Track  5
     Filename C:\Users\Qwim\Desktop\Daniel Lanois - For The Beauty of Wynona (1993) [FLAC]\Flac\05 - Waiting.wav
     Pre-gap length  0:00:01.30
     Peak level 100.0 %
     Extraction speed 3.4 X
     Track quality 99.9 %
     Test CRC 1B47AD6C
     Copy CRC 1B47AD6C
     Accurately ripped (confidence 19)  [FB78F31A]  (AR v2)
     Copy OK
Track  6
     Filename C:\Users\Qwim\Desktop\Daniel Lanois - For The Beauty of Wynona (1993) [FLAC]\Flac\06 - The Collection Of Marie Claire.wav
     Peak level 88.6 %
     Extraction speed 5.6 X
     Track quality 100.0 %
     Test CRC 7D2EE27E
     Copy CRC 7D2EE27E
     Accurately ripped (confidence 19)  [2D2C8147]  (AR v2)
     Copy OK
Track  7
     Filename C:\Users\Qwim\Desktop\Daniel Lanois - For The Beauty of Wynona (1993) [FLAC]\Flac\07 - Death Of A Train.wav
     Peak level 94.9 %
     Extraction speed 6.1 X
     Track quality 100.0 %
     Test CRC 77A423DB
     Copy CRC 77A423DB
     Accurately ripped (confidence 19)  [7FFF106E]  (AR v2)
     Copy OK
Track  8
     Filename C:\Users\Qwim\Desktop\Daniel Lanois - For The Beauty of Wynona (1993) [FLAC]\Flac\08 - The Unbreakable Chain.wav
     Pre-gap length  0:00:00.18
     Peak level 99.9 %
     Extraction speed 6.2 X
     Track quality 100.0 %
     Test CRC F90E4BCB
     Copy CRC F90E4BCB
     Accurately ripped (confidence 18)  [0A050AE0]  (AR v2)
     Copy OK
Track  9
     Filename C:\Users\Qwim\Desktop\Daniel Lanois - For The Beauty of Wynona (1993) [FLAC]\Flac\09 - Lotta Love To Give.wav
     Pre-gap length  0:00:00.65
     Peak level 100.0 %
     Extraction speed 6.3 X
     Track quality 100.0 %
     Test CRC E4E8CCD5
     Copy CRC E4E8CCD5
     Accurately ripped (confidence 19)  [5D19F2D8]  (AR v2)
     Copy OK
Track 10
     Filename C:\Users\Qwim\Desktop\Daniel Lanois - For The Beauty of Wynona (1993) [FLAC]\Flac\10 - Indian Red.wav
     Pre-gap length  0:00:01.03
     Peak level 100.0 %
     Extraction speed 6.5 X
     Track quality 100.0 %
     Test CRC EC3E7E6A
     Copy CRC EC3E7E6A
     Accurately ripped (confidence 19)  [E75B05E3]  (AR v2)
     Copy OK
Track 11
     Filename C:\Users\Qwim\Desktop\Daniel Lanois - For The Beauty of Wynona (1993) [FLAC]\Flac\11 - Sleeping In The Devil's Bed.wav
     Pre-gap length  0:00:01.50
     Peak level 95.5 %
     Extraction speed 6.5 X
     Track quality 100.0 %
     Test CRC 0616E8A4
     Copy CRC 0616E8A4
     Accurately ripped (confidence 18)  [75BCF80E]  (AR v2)
     Copy OK
Track 12
     Filename C:\Users\Qwim\Desktop\Daniel Lanois - For The Beauty of Wynona (1993) [FLAC]\Flac\12 - For The Beauty Of Wynona.wav
     Pre-gap length  0:00:02.00
     Peak level 100.0 %
     Extraction speed 7.3 X
     Track quality 100.0 %
     Test CRC CD672039
     Copy CRC CD672039
     Accurately ripped (confidence 17)  [2BDACA3D]  (AR v2)
     Copy OK
Track 13
     Filename C:\Users\Qwim\Desktop\Daniel Lanois - For The Beauty of Wynona (1993) [FLAC]\Flac\13 - Rocky World.wav
     Pre-gap length  0:00:01.60
     Peak level 99.9 %
     Extraction speed 6.8 X
     Track quality 100.0 %
     Test CRC 06E84152
     Copy CRC 06E84152
     Accurately ripped (confidence 18)  [B6BF38B7]  (AR v2)
     Copy OK
All tracks accurately ripped
No errors occurred
End of status report
==== Log checksum 744BC5C95AA230321C3433C7907F4CEA71631C2BEADA737849B1129B945416DB ====
Код:
REM GENRE Rock
REM DATE 1993
REM DISCID C40CEA0D
REM COMMENT "ExactAudioCopy v1.0b2"
PERFORMER "Daniel Lanois"
TITLE "For The Beauty Of Wynona"
FILE "01 - The Messenger.wav" WAVE
  TRACK 01 AUDIO
    TITLE "The Messenger"
    PERFORMER "Daniel Lanois"
    INDEX 01 00:00:00
  TRACK 02 AUDIO
    TITLE "Brother L.A."
    PERFORMER "Daniel Lanois"
    FLAGS DCP
    INDEX 00 05:27:18
FILE "02 - Brother L.A..wav" WAVE
    INDEX 01 00:00:00
  TRACK 03 AUDIO
    TITLE "Still Learning How To Crawl"
    PERFORMER "Daniel Lanois"
    FLAGS DCP
    INDEX 00 04:16:72
FILE "03 - Still Learning How To Crawl.wav" WAVE
    INDEX 01 00:00:00
  TRACK 04 AUDIO
    TITLE "Beatrice"
    PERFORMER "Daniel Lanois"
    FLAGS DCP
    INDEX 00 05:17:70
FILE "04 - Beatrice.wav" WAVE
    INDEX 01 00:00:00
  TRACK 05 AUDIO
    TITLE "Waiting"
    PERFORMER "Daniel Lanois"
    FLAGS DCP
    INDEX 00 04:20:27
FILE "05 - Waiting.wav" WAVE
    INDEX 01 00:00:00
FILE "06 - The Collection Of Marie Claire.wav" WAVE
  TRACK 06 AUDIO
    TITLE "The Collection Of Marie Claire"
    PERFORMER "Daniel Lanois"
    FLAGS DCP
    INDEX 01 00:00:00
FILE "07 - Death Of A Train.wav" WAVE
  TRACK 07 AUDIO
    TITLE "Death Of A Train"
    PERFORMER "Daniel Lanois"
    FLAGS DCP
    INDEX 01 00:00:00
  TRACK 08 AUDIO
    TITLE "The Unbreakable Chain"
    PERFORMER "Daniel Lanois"
    FLAGS DCP
    INDEX 00 05:47:37
FILE "08 - The Unbreakable Chain.wav" WAVE
    INDEX 01 00:00:00
  TRACK 09 AUDIO
    TITLE "Lotta Love To Give"
    PERFORMER "Daniel Lanois"
    FLAGS DCP
    INDEX 00 04:18:62
FILE "09 - Lotta Love To Give.wav" WAVE
    INDEX 01 00:00:00
  TRACK 10 AUDIO
    TITLE "Indian Red"
    PERFORMER "Daniel Lanois"
    FLAGS DCP
    INDEX 00 03:37:40
FILE "10 - Indian Red.wav" WAVE
    INDEX 01 00:00:00
  TRACK 11 AUDIO
    TITLE "Sleeping In The Devil's Bed"
    PERFORMER "Daniel Lanois"
    FLAGS DCP
    INDEX 00 03:45:12
FILE "11 - Sleeping In The Devil's Bed.wav" WAVE
    INDEX 01 00:00:00
  TRACK 12 AUDIO
    TITLE "For The Beauty Of Wynona"
    PERFORMER "Daniel Lanois"
    FLAGS DCP
    INDEX 00 03:01:33
FILE "12 - For The Beauty Of Wynona.wav" WAVE
    INDEX 01 00:00:00
  TRACK 13 AUDIO
    TITLE "Rocky World"
    PERFORMER "Daniel Lanois"
    FLAGS DCP
    INDEX 00 05:50:15
FILE "13 - Rocky World.wav" WAVE
    INDEX 01 00:00:00
источник: закрытый трекер, raider
Правила, инструкции, FAQ!!!
Торрент  Добавлен [26 мар 2019, 18:38] Скачать торрент Магнет ссылка
Скачать торрент
[ Размер 13.91 КБ / Просмотров 12 ]

Статус
Проверен 
 
Размер  303.58 МБ
Приватный: Нет (DHT включён)
.torrent скачан  0
 


     Отправить личное сообщение
   
Страница 1 из 1
Показать сообщения за:  Поле сортировки  
Начать новую тему Ответить на тему


Сейчас этот форум просматривают: нет зарегистрированных пользователей и гости: 0


Вы не можете начинать темы
Вы не можете отвечать на сообщения
Вы не можете редактировать свои сообщения
Вы не можете удалять свои сообщения
Вы не можете добавлять вложения

Перейти:  
cron
cron