Начать новую тему Ответить на тему
Статистика раздачи
Размер: 402.68 МБ | Добавлен: 20 июл 2020, 17:48 | Скачали: 0
Сидеров: 0  [0 байт/сек]    Личеров: 0  [0 байт/сек]
Пред. тема | След. тема 

Автор
Сообщение

СообщениеДобавлено: 20 июл 2020, 17:48 

Ответить с цитатой 

Hunters & Collectors - коллекция 1986,1995 г.г. (2 альбома)


Жанр: Rock, Dance-Punk, Pub Rock
Носитель: CD
Год издания: 1986,1995
Страна исполнителя (группы): Australia
Страна-производитель диска: Australia
Год первого выпуска: 1986
Год настоящего издания: 1986
Издатель (лейбл): White Label Records
Номер по каталогу: CD 53205
Format: CD, Album
Аудиокодек: FLAC (*.flac)
Тип рипа: tracks+.cue
Битрейт аудио: lossless
Продолжительность: 00:41:39
Источник (релизер): Закрытый трекер
Наличие сканов в содержимом раздачи: да
Треклист:
01. Say Goodbye (3:50)
02. Is There Anybody in There? (3:24)
03. Throw Your Arms Around Me (3:56)
04. Everything's on Fire (4:27)
05. Relief (5:08)
06. The Finger (4:28)
07. 99th Home Position (2:37)
08. Dog (3:42)
09. Stuck on You (3:13)
10. This Morning (6:41)
Код:
Exact Audio Copy V1.1 from 23. June 2015
EAC extraction logfile from 4. January 2016, 20:30
Hunters & Collectors / Human Frailty
Used drive  : TSSTcorpCDDVDW SH-224DB   Adapter: 1  ID: 0
Read mode               : Secure
Utilize accurate stream : Yes
Defeat audio cache      : Yes
Make use of C2 pointers : No
Read offset correction                      : 6
Overread into Lead-In and Lead-Out          : No
Fill up missing offset samples with silence : Yes
Delete leading and trailing silent blocks   : No
Null samples used in CRC calculations       : Yes
Used interface                              : Native Win32 interface for Win NT & 2000
Gap handling                                : Appended to previous track
Used output format              : User Defined Encoder
Selected bitrate                : 1024 kBit/s
Quality                         : High
Add ID3 tag                     : No
Command line compressor         : C:\Program Files (x86)\Exact Audio Copy\Flac\flac.exe
Additional command line options : -8 -V -T "ARTIST=%artist%" -T "TITLE=%title%" -T "ALBUM=%albumtitle%" -T "DATE=%year%" -T "TRACKNUMBER=%tracknr%" -T "TOTALTRACKS=%numtracks%" -T "GENRE=%genre%" -T "ALBUMARTIST=%albumartist%" -T "ALBUM ARTIST=%albumartist%" -T "COMMENT=EAC Secure Mode, Test & Copy, AccurateRip, FLAC -8" %source%
TOC of the extracted CD
     Track |   Start  |  Length  | Start sector | End sector
    ---------------------------------------------------------
        1  |  0:00.00 |  3:50.20 |         0    |    17269
        2  |  3:50.20 |  3:24.62 |     17270    |    32631
        3  |  7:15.07 |  3:56.63 |     32632    |    50394
        4  | 11:11.70 |  4:27.52 |     50395    |    70471
        5  | 15:39.47 |  5:11.43 |     70472    |    93839
        6  | 20:51.15 |  4:28.02 |     93840    |   113941
        7  | 25:19.17 |  2:38.35 |    113942    |   125826
        8  | 27:57.52 |  3:42.30 |    125827    |   142506
        9  | 31:40.07 |  3:13.38 |    142507    |   157019
       10  | 34:53.45 |  6:46.05 |    157020    |   187474
Track  1
     Filename C:\Users\biafr_000\Music\Hunters & Collectors - Human Frailty (1986) [FLAC]\01 - Say Goodbye.wav
     Pre-gap length  0:00:02.00
     Peak level 83.8 %
     Extraction speed 1.7 X
     Track quality 100.0 %
     Test CRC 3CB26992
     Copy CRC 3CB26992
     Accurately ripped (confidence 2)  [49DF3E5F]  (AR v2)
     Copy OK
Track  2
     Filename C:\Users\biafr_000\Music\Hunters & Collectors - Human Frailty (1986) [FLAC]\02 - Is There Anybody In There_.wav
     Peak level 74.0 %
     Extraction speed 1.6 X
     Track quality 99.9 %
     Test CRC 1F867C00
     Copy CRC 1F867C00
     Accurately ripped (confidence 2)  [1B655E4B]  (AR v2)
     Copy OK
Track  3
     Filename C:\Users\biafr_000\Music\Hunters & Collectors - Human Frailty (1986) [FLAC]\03 - Throw Your Arms Around Me.wav
     Peak level 80.1 %
     Extraction speed 2.0 X
     Track quality 100.0 %
     Test CRC 7D21BB5D
     Copy CRC 7D21BB5D
     Accurately ripped (confidence 2)  [79CAE9DD]  (AR v2)
     Copy OK
Track  4
     Filename C:\Users\biafr_000\Music\Hunters & Collectors - Human Frailty (1986) [FLAC]\04 - Everything's on Fire.wav
     Pre-gap length  0:00:02.60
     Peak level 83.2 %
     Extraction speed 2.2 X
     Track quality 100.0 %
     Test CRC EFAC57AA
     Copy CRC EFAC57AA
     Accurately ripped (confidence 2)  [42C909E3]  (AR v2)
     Copy OK
Track  5
     Filename C:\Users\biafr_000\Music\Hunters & Collectors - Human Frailty (1986) [FLAC]\05 - Relief.wav
     Pre-gap length  0:00:00.35
     Peak level 71.4 %
     Extraction speed 2.4 X
     Track quality 100.0 %
     Test CRC 907B6D0C
     Copy CRC 907B6D0C
     Accurately ripped (confidence 2)  [53DACEC0]  (AR v2)
     Copy OK
Track  6
     Filename C:\Users\biafr_000\Music\Hunters & Collectors - Human Frailty (1986) [FLAC]\06 - The Finger.wav
     Pre-gap length  0:00:02.15
     Peak level 81.3 %
     Extraction speed 2.5 X
     Track quality 100.0 %
     Test CRC 5FF449E4
     Copy CRC 5FF449E4
     Accurately ripped (confidence 2)  [7AC69836]  (AR v2)
     Copy OK
Track  7
     Filename C:\Users\biafr_000\Music\Hunters & Collectors - Human Frailty (1986) [FLAC]\07 - 99th Home Position.wav
     Peak level 99.9 %
     Extraction speed 2.4 X
     Track quality 100.0 %
     Test CRC 4EF040C0
     Copy CRC 4EF040C0
     Accurately ripped (confidence 2)  [46E2D3D1]  (AR v2)
     Copy OK
Track  8
     Filename C:\Users\biafr_000\Music\Hunters & Collectors - Human Frailty (1986) [FLAC]\08 - Dog.wav
     Peak level 86.1 %
     Extraction speed 2.2 X
     Track quality 99.9 %
     Test CRC FACF4B4E
     Copy CRC FACF4B4E
     Accurately ripped (confidence 2)  [A1B86BCD]  (AR v2)
     Copy OK
Track  9
     Filename C:\Users\biafr_000\Music\Hunters & Collectors - Human Frailty (1986) [FLAC]\09 - Stuck On You.wav
     Pre-gap length  0:00:01.45
     Peak level 81.3 %
     Extraction speed 2.1 X
     Track quality 99.9 %
     Test CRC 01285FE4
     Copy CRC 01285FE4
     Accurately ripped (confidence 2)  [8C171052]  (AR v2)
     Copy OK
Track 10
     Filename C:\Users\biafr_000\Music\Hunters & Collectors - Human Frailty (1986) [FLAC]\10 - This Morning.wav
     Pre-gap length  0:00:02.40
     Peak level 84.8 %
     Extraction speed 3.1 X
     Track quality 100.0 %
     Test CRC F5A809EC
     Copy CRC F5A809EC
     Accurately ripped (confidence 2)  [933B51FC]  (AR v2)
     Copy OK
All tracks accurately ripped
No errors occurred
End of status report
---- CUETools DB Plugin V2.1.6
[CTDB TOCID: fi3xIlv4S.dy3lqaJUEplqyLMC0-] found
Submit result: fi3xIlv4S.dy3lqaJUEplqyLMC0- has been confirmed
Track | CTDB Status
  1   | (1/1) Accurately ripped
  2   | (1/1) Accurately ripped
  3   | (1/1) Accurately ripped
  4   | (1/1) Accurately ripped
  5   | (1/1) Accurately ripped
  6   | (1/1) Accurately ripped
  7   | (1/1) Accurately ripped
  8   | (1/1) Accurately ripped
  9   | (1/1) Accurately ripped
 10   | (1/1) Accurately ripped
==== Log checksum 7112EEFC26C69657B4B67B480F3CB101A30AB165685733D09CDB8BC9AA117830 ====
Код:
REM GENRE "Post Punk"
REM DATE 1986
REM DISCID 7C09C30A
REM COMMENT "ExactAudioCopy v1.1"
PERFORMER "Hunters & Collectors"
TITLE "Human Frailty"
FILE "01 - Say Goodbye.wav" WAVE
  TRACK 01 AUDIO
    TITLE "Say Goodbye"
    PERFORMER "Hunters & Collectors"
    INDEX 01 00:00:00
FILE "02 - Is There Anybody In There_.wav" WAVE
  TRACK 02 AUDIO
    TITLE "Is There Anybody In There?"
    PERFORMER "Hunters & Collectors"
    INDEX 01 00:00:00
FILE "03 - Throw Your Arms Around Me.wav" WAVE
  TRACK 03 AUDIO
    TITLE "Throw Your Arms Around Me"
    PERFORMER "Hunters & Collectors"
    INDEX 01 00:00:00
  TRACK 04 AUDIO
    TITLE "Everything's on Fire"
    PERFORMER "Hunters & Collectors"
    INDEX 00 03:54:03
FILE "04 - Everything's on Fire.wav" WAVE
    INDEX 01 00:00:00
  TRACK 05 AUDIO
    TITLE "Relief"
    PERFORMER "Hunters & Collectors"
    INDEX 00 04:27:17
FILE "05 - Relief.wav" WAVE
    INDEX 01 00:00:00
  TRACK 06 AUDIO
    TITLE "The Finger"
    PERFORMER "Hunters & Collectors"
    INDEX 00 05:09:28
FILE "06 - The Finger.wav" WAVE
    INDEX 01 00:00:00
FILE "07 - 99th Home Position.wav" WAVE
  TRACK 07 AUDIO
    TITLE "99th Home Position"
    PERFORMER "Hunters & Collectors"
    INDEX 01 00:00:00
FILE "08 - Dog.wav" WAVE
  TRACK 08 AUDIO
    TITLE "Dog"
    PERFORMER "Hunters & Collectors"
    INDEX 01 00:00:00
  TRACK 09 AUDIO
    TITLE "Stuck On You"
    PERFORMER "Hunters & Collectors"
    INDEX 00 03:40:60
FILE "09 - Stuck On You.wav" WAVE
    INDEX 01 00:00:00
  TRACK 10 AUDIO
    TITLE "This Morning"
    PERFORMER "Hunters & Collectors"
    INDEX 00 03:10:73
FILE "10 - This Morning.wav" WAVE
    INDEX 01 00:00:00
Код:
AUDIOCHECKER v2.0 beta (build 457) - by Dester - opdester@freemail.hu
~~~~~~~~~~~~~~~~~~~~~~~~~~~~~~~~~~
-=== DO NOT EDIT THIS FILE! ===-
Path: ...\1986. Human Frailty {1986, Australia, White Label Records CD 53205}
01 -=- 01 - Say Goodbye.flac -=- ERROR
02 -=- 02 - Is There Anybody In There_.flac -=- MPEG (95%)
03 -=- 03 - Throw Your Arms Around Me.flac -=- MPEG (85%)
04 -=- 04 - Everything's on Fire.flac -=- MPEG (79%)
05 -=- 05 - Relief.flac -=- MPEG (95%)
06 -=- 06 - The Finger.flac -=- MPEG (95%)
07 -=- 07 - 99th Home Position.flac -=- MPEG (95%)
08 -=- 08 - Dog.flac -=- MPEG (95%)
09 -=- 09 - Stuck On You.flac -=- MPEG (100%)
10 -=- 10 - This Morning.flac -=- CDDA (100%)
Summary 17,89% CDDA
161333236
Доп. информация: Интересный альбом. В этом альбоме группа наконец-то обнаружила свою истинную силу; баланс басов, барабанных композиций, гитар, горнов и других инструментов, наполняющих мелодии песен.
Качество звука - отличное, хотя аудиочеккер сомневается.

John Archer: bass guitars
Doug Falconer: drums
Jack Howard: trumpet, string arrangements
Robert Miles: sound mixing
Mark Seymour: lead vocals, guitars, lyrics
Jeremy Smith: french horn, keyboards
Michael Waters: trombone, keyboards
Everyone: backing vocals
#777Страна-производитель диска: Australia
Год первого выпуска: 1995
Год настоящего издания: 1995
Издатель (лейбл): White Label Records
Номер по каталогу: PRD95/01
Format: CD, EP, Live
Аудиокодек: FLAC (*.flac)
Тип рипа: tracks+.cue
Битрейт аудио: lossless
Продолжительность: 00:25:17
Источник (релизер): закрытый трекер
Наличие сканов в содержимом раздачи: да
Треклист:
01. Say Goodbye (5:21)
02. Stuck on You (3:31)
03. Dog (3:42)
04. Mr Bigmouth (4:14)
05. Holy Grail (4:02)
06. True Tears of Joy (4:28)
Код:
X Lossless Decoder version 20141129 (148.1)
XLD extraction logfile from 2015-03-08 09:42:26 +1000
Hunters & Collectors / Live Demons In Amsterdam
Used drive : HL-DT-ST DVDRW  GA32N (revision KE06)
Media type : Pressed CD
Ripper mode             : XLD Secure Ripper
Disable audio cache     : OK for the drive with a cache less than 1375KiB
Make use of C2 pointers : NO
Read offset correction  : 103
Max retry count         : 100
Gap status              : Analyzed, Appended (except HTOA)
TOC of the extracted CD
     Track |   Start  |  Length  | Start sector | End sector
    ---------------------------------------------------------
        1  | 00:00:00 | 05:20:72 |         0    |    24071
        2  | 05:20:72 | 03:30:40 |     24072    |    39861
        3  | 08:51:37 | 03:41:63 |     39862    |    56499
        4  | 12:33:25 | 04:14:37 |     56500    |    75586
        5  | 16:47:62 | 04:01:50 |     75587    |    93711
        6  | 20:49:37 | 04:27:50 |     93712    |   113786
AccurateRip Summary (DiscID: 00062840-0020820f-3805ed06)
    Track 01 : OK (v2, confidence 2/2)
    Track 02 : OK (v1+v2, confidence 4/4)
    Track 03 : OK (v1+v2, confidence 4/4)
    Track 04 : OK (v1+v2, confidence 4/4)
    Track 05 : OK (v1+v2, confidence 4/4)
    Track 06 : OK (v1+v2, confidence 4/4)
        ->All tracks accurately ripped.
All Tracks
    Album gain               : -7.32 dB
    Peak                     : 1.000000
    Statistics
        Read error                           : 0
        Jitter error (maybe fixed)           : 0
        Retry sector count                   : 1
        Damaged sector count                 : 0
Track 01
    Filename : /Volumes/Macintosh HD/Users/Ian/Music/To Do/Hunters & Collectors - Live Demons In Amsterdam (1995) [FLAC]/01 - Say Goodbye.flac
    Pre-gap length : 00:02:00
    Track gain               : -7.59 dB
    Peak                     : 0.870972
    CRC32 hash (test run)    : F3BEF94B
    CRC32 hash               : F3BEF94B
    CRC32 hash (skip zero)   : F755A26F
    AccurateRip v1 signature : 383845D7
    AccurateRip v2 signature : 9B4BF783
        ->Accurately ripped (v2, confidence 2/2)
    Statistics
        Read error                           : 0
        Jitter error (maybe fixed)           : 0
        Retry sector count                   : 0
        Damaged sector count                 : 0
Track 02
    Filename : /Volumes/Macintosh HD/Users/Ian/Music/To Do/Hunters & Collectors - Live Demons In Amsterdam (1995) [FLAC]/02 - Stuck On You.flac
    Track gain               : -5.93 dB
    Peak                     : 0.831787
    CRC32 hash (test run)    : 203D4F69
    CRC32 hash               : 203D4F69
    CRC32 hash (skip zero)   : 75D72CD0
    AccurateRip v1 signature : 53088F4A
    AccurateRip v2 signature : 9424357C
        ->Accurately ripped (v1+v2, confidence 2+2/4)
    Statistics
        Read error                           : 0
        Jitter error (maybe fixed)           : 0
        Retry sector count                   : 0
        Damaged sector count                 : 0
Track 03
    Filename : /Volumes/Macintosh HD/Users/Ian/Music/To Do/Hunters & Collectors - Live Demons In Amsterdam (1995) [FLAC]/03 - Dog.flac
    Track gain               : -7.57 dB
    Peak                     : 0.831787
    CRC32 hash (test run)    : 14127886
    CRC32 hash               : 14127886
    CRC32 hash (skip zero)   : B51DFAA9
    AccurateRip v1 signature : A4D201A2
    AccurateRip v2 signature : C5EF89B5
        ->Accurately ripped (v1+v2, confidence 2+2/4)
    Statistics
        Read error                           : 0
        Jitter error (maybe fixed)           : 0
        Retry sector count                   : 0
        Damaged sector count                 : 0
Track 04
    Filename : /Volumes/Macintosh HD/Users/Ian/Music/To Do/Hunters & Collectors - Live Demons In Amsterdam (1995) [FLAC]/04 - Mr Bigmouth.flac
    Track gain               : -5.13 dB
    Peak                     : 0.831787
    CRC32 hash (test run)    : 8E51AAD8
    CRC32 hash               : 8E51AAD8
    CRC32 hash (skip zero)   : 2DC8F953
    AccurateRip v1 signature : 730FEDE7
    AccurateRip v2 signature : 534441B3
        ->Accurately ripped (v1+v2, confidence 2+2/4)
    Statistics
        Read error                           : 0
        Jitter error (maybe fixed)           : 0
        Retry sector count                   : 1
        Damaged sector count                 : 0
Track 05
    Filename : /Volumes/Macintosh HD/Users/Ian/Music/To Do/Hunters & Collectors - Live Demons In Amsterdam (1995) [FLAC]/05 - Holy Grail.flac
    Track gain               : -8.32 dB
    Peak                     : 1.000000
    CRC32 hash (test run)    : B3CFAD51
    CRC32 hash               : B3CFAD51
    CRC32 hash (skip zero)   : 0FE6DA62
    AccurateRip v1 signature : 3305E254
    AccurateRip v2 signature : 5894008D
        ->Accurately ripped (v1+v2, confidence 2+2/4)
    Statistics
        Read error                           : 0
        Jitter error (maybe fixed)           : 0
        Retry sector count                   : 0
        Damaged sector count                 : 0
Track 06
    Filename : /Volumes/Macintosh HD/Users/Ian/Music/To Do/Hunters & Collectors - Live Demons In Amsterdam (1995) [FLAC]/06 - True Tears Of Joy.flac
    Track gain               : -7.15 dB
    Peak                     : 0.831787
    CRC32 hash (test run)    : 51722F21
    CRC32 hash               : 51722F21
    CRC32 hash (skip zero)   : 28271E04
    AccurateRip v1 signature : 73091291
    AccurateRip v2 signature : BF63DD99
        ->Accurately ripped (v1+v2, confidence 2+2/4)
    Statistics
        Read error                           : 0
        Jitter error (maybe fixed)           : 0
        Retry sector count                   : 0
        Damaged sector count                 : 0
No errors occurred
End of status report
-----BEGIN XLD SIGNATURE-----
6jvQ2Zu5m9Eu9yTnEa66qW0CZvF8I4ONyvsCSI5jSuvro9opgFVNsZwlX8Y.k9oFeoErHHEJ_FklwjVM4JwULdz7p2Icnb64ald2LPy
-----END XLD SIGNATURE-----
Код:
TITLE "Live Demons In Amsterdam"
PERFORMER "Hunters & Collectors"
REM DATE "1995"
REM DISCID 3805ED06
FILE "01 - Say Goodbye.wav" WAVE
  TRACK 01 AUDIO
    TITLE "Say Goodbye"
    PERFORMER "Hunters & Collectors"
    INDEX 01 00:00:00
FILE "02 - Stuck On You.wav" WAVE
  TRACK 02 AUDIO
    TITLE "Stuck On You"
    PERFORMER "Hunters & Collectors"
    INDEX 01 00:00:00
FILE "03 - Dog.wav" WAVE
  TRACK 03 AUDIO
    TITLE "Dog"
    PERFORMER "Hunters & Collectors"
    INDEX 01 00:00:00
FILE "04 - Mr Bigmouth.wav" WAVE
  TRACK 04 AUDIO
    TITLE "Mr Bigmouth"
    PERFORMER "Hunters & Collectors"
    INDEX 01 00:00:00
FILE "05 - Holy Grail.wav" WAVE
  TRACK 05 AUDIO
    TITLE "Holy Grail"
    PERFORMER "Hunters & Collectors"
    INDEX 01 00:00:00
FILE "06 - True Tears Of Joy.wav" WAVE
  TRACK 06 AUDIO
    TITLE "True Tears Of Joy"
    PERFORMER "Hunters & Collectors"
    INDEX 01 00:00:00
Код:
AUDIOCHECKER v2.0 beta (build 457) - by Dester - opdester@freemail.hu
~~~~~~~~~~~~~~~~~~~~~~~~~~~~~~~~~~
-=== DO NOT EDIT THIS FILE! ===-
Path: ...\1995. Live Demons In Amsterdam {1995, Australia, White Label Records PRD9501}
1 -=- 01 - Say Goodbye.flac -=- CDDA (99%)
2 -=- 02 - Stuck On You.flac -=- CDDA (100%)
3 -=- 03 - Dog.flac -=- CDDA (100%)
4 -=- 04 - Mr Bigmouth.flac -=- CDDA (100%)
5 -=- 05 - Holy Grail.flac -=- CDDA (100%)
6 -=- 06 - True Tears Of Joy.flac -=- CDDA (100%)
Summary 99,83% CDDA
77080164
Доп. информация: Очень редкий диск. Некоторое время раздавался при покупке альбома группы. Пара песен очень хороши.

Full band members

#777Current members

Mark Seymour – lead vocals, lead guitar (1981–98, 2013–present)
Jack Howard – trumpet, keyboards, backing vocals (1981–98, 2013–present)
Michael Waters – trombone, keyboards (1981–98, 2013–present)
Jeremy Smith – French horn, guitars, keyboards, programming, backing vocals (1981–98, 2013–present)
Doug Falconer – drums, percussion, programming, backing vocals (1981–98, 2013–present)
John Archer – bass, backing vocals (1981–98, 2013–present)
Robert Miles – live sound/mixing, art/design (1981–98, 2013–present)
Barry Palmer – lead guitar (1988–98, 2013–present)
Правила, инструкции, FAQ!!!
Торрент  Добавлен [20 июл 2020, 17:48] Скачать торрент Магнет ссылка
Скачать торрент
[ Размер 20.69 КБ / Просмотров 4 ]

Статус
Проверен 
 
Размер  402.68 МБ
Приватный: Нет (DHT включён)
.torrent скачан  0
 


     Отправить личное сообщение
   
Страница 1 из 1
Показать сообщения за:  Поле сортировки  
Начать новую тему Ответить на тему


Сейчас этот форум просматривают: нет зарегистрированных пользователей и гости: 0


Вы не можете начинать темы
Вы не можете отвечать на сообщения
Вы не можете редактировать свои сообщения
Вы не можете удалять свои сообщения
Вы не можете добавлять вложения

Перейти:  
cron