Начать новую тему Ответить на тему
Статистика раздачи
Размер: 250.76 МБ | Добавлен: 26 мар 2019, 19:16 | Скачали: 0
Сидеров: 0  [0 байт/сек]    Личеров: 0  [0 байт/сек]
Пред. тема | След. тема 

Автор
Сообщение

СообщениеДобавлено: 26 мар 2019, 19:16 

Ответить с цитатой 

.
Ulf Lundell

Törst
.
Жанр: Rock, Classic Rock, Pop Rock
Носитель
: CD
Страна-производитель диска (релиза): Sweden
Год издания: 1992 / 1976
Издатель (лейбл): Harvest / EMI
Номер по каталогу: 1364792 / 1364792
Страна исполнителя (группы): Sweden
Аудиокодек: FLAC (*.flac)
Тип рипа: image+.cue
Битрейт аудио: lossless
Продолжительность: 00:41:49
Источник (релизер): stas64
Наличие сканов в содержимом раздачи: да - 600 dpi,
(кроме текстов песен внутри книжки)
.
.
Треклист:
01 - Torst.
02
- Jag Vill Ha Ett Lejon.
03 - Mitt I Nattens Djungel Stalld.
04 - Birgitta Hon Dansar.
05 - USA.
06 - Och Gar En Stund Pa Jorden.
07 - Cobra Rax.
08 - Varen Narmar Sej City.
09 - Sondag.



Код:
Exact Audio Copy V1.1 from 23. June 2015
Отчёт EAC об извлечении, выполненном 14. мая 2016, 23:16
Ulf Lundell / Torst
Дисковод: PLEXTOR DVDR   PX-712A   Adapter: 8  ID: 0
Режим чтения                 : Достоверность
Использование точного потока : Да
Отключение кэша аудио        : Да
Использование указателей C2  : Нет
Коррекция смещения при чтении                     : 30
Способность читать области Lead-in и Lead-out     : Нет
Заполнение пропущенных сэмплов тишиной            : Да
Удаление блоков с тишиной в начале и конце        : Нет
При вычислениях CRC использовались нулевые сэмплы : Да
Интерфейс                                         : Установленный внешний ASPI-интерфейс
Выходной формат          : Пользовательский кодировщик
Выбранный битрейт        : 128 kBit/s
Качество                 : Высокий
Добавление ID3-тега      : Нет
Утилита сжатия           : C:\Program Files\Exact Audio Copy\Flac\flac.exe
Дополнительные параметры : -V -8 -T "Genre=%genre%" -T "Artist=%artist%" -T "Title=%title%" -T "Album=%albumtitle%" -T "Date=%year%" -T "Tracknumber=%tracknr%" -T "Comment=%comment%" %source%
TOC извлечённого CD
     Трек |   Старт  | Длительность | Начальный сектор | Конечный сектор
    ---------------------------------------------------------------------
       1  |  0:00.00 |    6:37.12   |           0      |      29786
       2  |  6:37.12 |    4:26.50   |       29787      |      49786
       3  | 11:03.62 |    5:07.08   |       49787      |      72819
       4  | 16:10.70 |    5:26.55   |       72820      |      97324
       5  | 21:37.50 |    4:09.10   |       97325      |     116009
       6  | 25:46.60 |    3:34.42   |      116010      |     132101
       7  | 29:21.27 |    3:52.55   |      132102      |     149556
       8  | 33:14.07 |    4:28.10   |      149557      |     169666
       9  | 37:42.17 |    4:06.65   |      169667      |     188181
Характеристики диапазона извлечения и сообщения об ошибках
Выбранный диапазон
     Имя файла I:\MOI_RAZDACI\Ulf Lundell 1976\Ulf.Lundell_Torst_1992\Ulf Lundell - Torst.wav
     Пиковый уровень 100.0 %
     Скорость извлечения 9.3 X
     Качество диапазона 100.0 %
     CRC теста B1198FF5
     CRC копии B1198FF5
     Копирование... OK
Ошибок не произошло
AccurateRip: сводка
Трек  1  отсутствует в базе данных
Трек  2  отсутствует в базе данных
Трек  3  отсутствует в базе данных
Трек  4  отсутствует в базе данных
Трек  5  отсутствует в базе данных
Трек  6  отсутствует в базе данных
Трек  7  отсутствует в базе данных
Трек  8  отсутствует в базе данных
Трек  9  отсутствует в базе данных
Ни одного трека нет в базе AccurateRip
Конец отчёта
---- CUETools DB Plugin V2.1.6
[CTDB TOCID: XBTf4CH8EmGYtjw2ai9MS9Tx5.c-] found
Submit result: XBTf4CH8EmGYtjw2ai9MS9Tx5.c- has been confirmed
Track | CTDB Status
  1   | (3/3) Accurately ripped
  2   | (3/3) Accurately ripped
  3   | (3/3) Accurately ripped
  4   | (3/3) Accurately ripped
  5   | (3/3) Accurately ripped
  6   | (3/3) Accurately ripped
  7   | (3/3) Accurately ripped
  8   | (3/3) Accurately ripped
  9   | (3/3) Accurately ripped
==== Контрольная сумма отчёта 9738EF992A78D2705BEE71482C4AB70CB46C292497418A109AE10E1F33280B76 ====
Код:
REM GENRE Rock
REM DATE 1976
REM DISCID 9909CD09
REM COMMENT "ExactAudioCopy v1.1"
PERFORMER "Ulf Lundell"
TITLE "Torst"
FILE "Ulf Lundell - Torst.flac" WAVE
  TRACK 01 AUDIO
    TITLE "Torst"
    PERFORMER "Ulf Lundell"
    INDEX 01 00:00:00
  TRACK 02 AUDIO
    TITLE "Jag Vill Ha Ett Lejon"
    PERFORMER "Ulf Lundell"
    INDEX 00 06:32:39
    INDEX 01 06:37:12
  TRACK 03 AUDIO
    TITLE "Mitt I Nattens Djungel Stalld"
    PERFORMER "Ulf Lundell"
    INDEX 00 10:59:55
    INDEX 01 11:03:62
  TRACK 04 AUDIO
    TITLE "Birgitta Hon Dansar"
    PERFORMER "Ulf Lundell"
    INDEX 00 16:06:64
    INDEX 01 16:10:70
  TRACK 05 AUDIO
    TITLE "USA"
    PERFORMER "Ulf Lundell"
    INDEX 00 21:35:53
    INDEX 01 21:37:50
  TRACK 06 AUDIO
    TITLE "Och Gar En Stund Pa Jorden"
    PERFORMER "Ulf Lundell"
    INDEX 00 25:42:52
    INDEX 01 25:46:60
  TRACK 07 AUDIO
    TITLE "Cobra Rax"
    PERFORMER "Ulf Lundell"
    INDEX 00 29:16:63
    INDEX 01 29:21:27
  TRACK 08 AUDIO
    TITLE "Varen Narmar Sej City"
    PERFORMER "Ulf Lundell"
    INDEX 00 33:10:42
    INDEX 01 33:14:07
  TRACK 09 AUDIO
    TITLE "Sondag"
    PERFORMER "Ulf Lundell"
    INDEX 00 37:37:29
    INDEX 01 37:42:17
Код:
-----------------------
DON'T MODIFY THIS FILE
-----------------------
PERFORMER: auCDtect Task Manager, ver. 1.5.1RC6 build 1.5.1.7
Copyright (c) 2008-2010 y-soft. All rights reserved
[url=http://y-soft.org]http://y-soft.org[/url]
ANALYZER: auCDtect: CD records authenticity detector, version 0.8.2
Copyright (c) 2004 Oleg Berngardt. All rights reserved.
Copyright (c) 2004 Alexander Djourik. All rights reserved.
FILE: Ulf Lundell - Torst.flac
  Size: 254121975 Hash: 19080A199DD1D54C44E6D6FF49ADEB61 Accuracy: -m0
  Conclusion: CDDA 100%
  Signature: 87BDC6CE5D6D99E8352084AC7BE001E9B4ACC7C6
Правила, инструкции, FAQ!!!
Торрент  Добавлен [26 мар 2019, 19:16] Скачать торрент Магнет ссылка
Скачать торрент
[ Размер 20.51 КБ / Просмотров 6 ]

Статус
Проверен 
 
Размер  250.76 МБ
Приватный: Нет (DHT включён)
.torrent скачан  0
 


     Отправить личное сообщение
   
Страница 1 из 1
Показать сообщения за:  Поле сортировки  
Начать новую тему Ответить на тему


Сейчас этот форум просматривают: нет зарегистрированных пользователей и гости: 0


Вы не можете начинать темы
Вы не можете отвечать на сообщения
Вы не можете редактировать свои сообщения
Вы не можете удалять свои сообщения
Вы не можете добавлять вложения

Перейти:  
cron