Начать новую тему Ответить на тему
Статистика раздачи
Размер: 564.02 МБ | Добавлен: 26 мар 2019, 19:17 | Скачали: 0
Сидеров: 0  [0 байт/сек]    Личеров: 0  [0 байт/сек]
Пред. тема | След. тема 

Автор
Сообщение

СообщениеДобавлено: 26 мар 2019, 19:17 

Ответить с цитатой 

.
ULF LUNDELL

Längre Inåt Landet
(2 × CD, Album, Ulf Gerhard Lundell).

Жанр
: Rock, Classic Rock, Pop Rock
Носитель
: CD
Страна-производитель диска (релиза): Europe
Год издания: 1980 2xLP, 1992 2xCD
Издатель (лейбл): Parlophone
Номер по каталогу: 1364822
Страна исполнителя (группы): Sweden
Аудиокодек: FLAC (*.flac)
Тип рипа: image+.cue
Битрейт аудио: lossless
Продолжительность: 00:38:07 + 00:48:49
Источник (релизер): stas64
Наличие сканов в содержимом раздачи: да - 600 dpi
Треклист:
01. Glad igen.
02
. Framlingar.
03. Odysseus.
04. Ingens kvinna.
05. Pulver.
06. Se mycket aldre.
07. Bara en fraga om nar.
08. Hem till mina rotter igen.
Код:
Exact Audio Copy V1.1 from 23. June 2015
Отчёт EAC об извлечении, выполненном 12. июня 2016, 22:07
Ulf Lundell / Langre Inat Landet - Cd 1
Дисковод: PLEXTOR DVDR   PX-712A   Adapter: 8  ID: 0
Режим чтения                 : Достоверность
Использование точного потока : Да
Отключение кэша аудио        : Да
Использование указателей C2  : Нет
Коррекция смещения при чтении                     : 30
Способность читать области Lead-in и Lead-out     : Нет
Заполнение пропущенных сэмплов тишиной            : Да
Удаление блоков с тишиной в начале и конце        : Нет
При вычислениях CRC использовались нулевые сэмплы : Да
Интерфейс                                         : Установленный внешний ASPI-интерфейс
Выходной формат          : Пользовательский кодировщик
Выбранный битрейт        : 128 kBit/s
Качество                 : Высокий
Добавление ID3-тега      : Нет
Утилита сжатия           : C:\Program Files\Exact Audio Copy\Flac\flac.exe
Дополнительные параметры : -V -8 -T "Genre=%genre%" -T "Artist=%artist%" -T "Title=%title%" -T "Album=%albumtitle%" -T "Date=%year%" -T "Tracknumber=%tracknr%" -T "Comment=%comment%" %source%
TOC извлечённого CD
     Трек |   Старт  | Длительность | Начальный сектор | Конечный сектор
    ---------------------------------------------------------------------
       1  |  0:00.00 |    3:38.50   |           0      |      16399
       2  |  3:38.50 |    3:39.00   |       16400      |      32824
       3  |  7:17.50 |    5:49.02   |       32825      |      59001
       4  | 13:06.52 |    5:38.33   |       59002      |      84384
       5  | 18:45.10 |    4:00.62   |       84385      |     102446
       6  | 22:45.72 |    6:43.48   |      102447      |     132719
       7  | 29:29.45 |    3:45.60   |      132720      |     149654
       8  | 33:15.30 |    4:52.32   |      149655      |     171586
Характеристики диапазона извлечения и сообщения об ошибках
Выбранный диапазон
     Имя файла I:\MOI_RAZDACI\Ulf Lundell 1992\Ulf.Lundell_Langre.Inat.Landet_1980\CD-1\Ulf Lundell - Langre Inat Landet - Cd 1.wav
     Пиковый уровень 100.0 %
     Скорость извлечения 9.6 X
     Качество диапазона 99.9 %
     CRC теста E10001E7
     CRC копии E10001E7
     Копирование... OK
Ошибок не произошло
AccurateRip: сводка
Трек  1  отсутствует в базе данных
Трек  2  отсутствует в базе данных
Трек  3  отсутствует в базе данных
Трек  4  отсутствует в базе данных
Трек  5  отсутствует в базе данных
Трек  6  отсутствует в базе данных
Трек  7  отсутствует в базе данных
Трек  8  отсутствует в базе данных
Ни одного трека нет в базе AccurateRip
Конец отчёта
---- CUETools DB Plugin V2.1.6
[CTDB TOCID: Mj9L2oQEx6pWOX73kh9L.dbAk1Q-] found
Submit result: Mj9L2oQEx6pWOX73kh9L.dbAk1Q- has been confirmed
Track | CTDB Status
  1   | (6/6) Accurately ripped
  2   | (6/6) Accurately ripped
  3   | (6/6) Accurately ripped
  4   | (6/6) Accurately ripped
  5   | (6/6) Accurately ripped
  6   | (6/6) Accurately ripped
  7   | (6/6) Accurately ripped
  8   | (6/6) Accurately ripped
==== Контрольная сумма отчёта EFCDD529B796C2F0A1907EA70D6AA79F4B32C3A82196B6240AF87A197DC73E4B ====
Код:
REM GENRE Rock
REM DATE 1980
REM DISCID 7308EF08
REM COMMENT "ExactAudioCopy v1.1"
PERFORMER "Ulf Lundell"
TITLE "Langre Inat Landet - Cd 1"
FILE "Ulf Lundell - Langre Inat Landet - Cd 1.flac" WAVE
  TRACK 01 AUDIO
    TITLE "Glad igen"
    PERFORMER "Ulf Lundell"
    INDEX 01 00:00:00
  TRACK 02 AUDIO
    TITLE "Framlingar"
    PERFORMER "Ulf Lundell"
    INDEX 00 03:34:35
    INDEX 01 03:38:50
  TRACK 03 AUDIO
    TITLE "Odysseus"
    PERFORMER "Ulf Lundell"
    INDEX 00 07:15:10
    INDEX 01 07:17:50
  TRACK 04 AUDIO
    TITLE "Ingens kvinna"
    PERFORMER "Ulf Lundell"
    INDEX 00 13:03:36
    INDEX 01 13:06:52
  TRACK 05 AUDIO
    TITLE "Pulver"
    PERFORMER "Ulf Lundell"
    INDEX 00 18:43:22
    INDEX 01 18:45:10
  TRACK 06 AUDIO
    TITLE "Se mycket aldre"
    PERFORMER "Ulf Lundell"
    INDEX 00 22:40:68
    INDEX 01 22:45:72
  TRACK 07 AUDIO
    TITLE "Bara en fraga om nar"
    PERFORMER "Ulf Lundell"
    INDEX 00 29:25:37
    INDEX 01 29:29:45
  TRACK 08 AUDIO
    TITLE "Hem till mina rotter igen"
    PERFORMER "Ulf Lundell"
    INDEX 00 33:11:24
    INDEX 01 33:15:30
Код:
-----------------------
DON'T MODIFY THIS FILE
-----------------------
PERFORMER: auCDtect Task Manager, ver. 1.5.1RC6 build 1.5.1.7
Copyright (c) 2008-2010 y-soft. All rights reserved
[url=http://y-soft.org]http://y-soft.org[/url]
ANALYZER: auCDtect: CD records authenticity detector, version 0.8.2
Copyright (c) 2004 Oleg Berngardt. All rights reserved.
Copyright (c) 2004 Alexander Djourik. All rights reserved.
FILE: Ulf Lundell - Langre Inat Landet - Cd 1.flac
  Size: 243687089 Hash: A45F1A39CAA3A2F0615086B329D4B880 Accuracy: -m0
  Conclusion: CDDA 100%
  Signature: 867AE04F7D1A37DA9C3DCAA9CC2AABDCDA0F1EAF
Треклист:
01. Battre Tider.
02
. Ryggen Fri.
03. Under Askan.
04. Langre Inat Landet.
05. Posorerna.
06. Stackars Jack.
07. Distraherad.
08. Som En Syster.
Код:
Exact Audio Copy V1.1 from 23. June 2015
Отчёт EAC об извлечении, выполненном 12. июня 2016, 22:52
Ulf Lundell / Langre Inat Landet - Cd 2
Дисковод: TSSTcorpCDDVDW SH-222BB   Adapter: 2  ID: 0
Режим чтения                 : Достоверность
Использование точного потока : Да
Отключение кэша аудио        : Да
Использование указателей C2  : Нет
Коррекция смещения при чтении                     : 6
Способность читать области Lead-in и Lead-out     : Нет
Заполнение пропущенных сэмплов тишиной            : Да
Удаление блоков с тишиной в начале и конце        : Нет
При вычислениях CRC использовались нулевые сэмплы : Да
Интерфейс                                         : Установленный внешний ASPI-интерфейс
Выходной формат          : Пользовательский кодировщик
Выбранный битрейт        : 128 kBit/s
Качество                 : Высокий
Добавление ID3-тега      : Нет
Утилита сжатия           : C:\Program Files\Exact Audio Copy\Flac\flac.exe
Дополнительные параметры : -V -8 -T "Genre=%genre%" -T "Artist=%artist%" -T "Title=%title%" -T "Album=%albumtitle%" -T "Date=%year%" -T "Tracknumber=%tracknr%" -T "Comment=%comment%" %source%
TOC извлечённого CD
     Трек |   Старт  | Длительность | Начальный сектор | Конечный сектор
    ---------------------------------------------------------------------
       1  |  0:00.00 |    3:20.22   |           0      |      15021
       2  |  3:20.22 |    6:09.65   |       15022      |      42761
       3  |  9:30.12 |    6:49.20   |       42762      |      73456
       4  | 16:19.32 |    8:07.20   |       73457      |     110001
       5  | 24:26.52 |    3:57.20   |      110002      |     127796
       6  | 28:23.72 |    4:30.45   |      127797      |     148091
       7  | 32:54.42 |    9:52.45   |      148092      |     192536
       8  | 42:47.12 |    6:02.05   |      192537      |     219691
Характеристики диапазона извлечения и сообщения об ошибках
Выбранный диапазон
     Имя файла I:\MOI_RAZDACI\Ulf Lundell 1992\Ulf.Lundell_Langre.Inat.Landet_1980\CD-2\Ulf Lundell - Langre Inat Landet - Cd 2.wav
     Пиковый уровень 96.9 %
     Скорость извлечения 2.7 X
     Качество диапазона 99.9 %
     CRC теста 7A7D1F2D
     CRC копии 7A7D1F2D
     Копирование... OK
Ошибок не произошло
AccurateRip: сводка
Трек  1  отсутствует в базе данных
Трек  2  отсутствует в базе данных
Трек  3  отсутствует в базе данных
Трек  4  отсутствует в базе данных
Трек  5  отсутствует в базе данных
Трек  6  отсутствует в базе данных
Трек  7  отсутствует в базе данных
Трек  8  отсутствует в базе данных
Ни одного трека нет в базе AccurateRip
Конец отчёта
---- CUETools DB Plugin V2.1.6
[CTDB TOCID: d3RB90GYN0SiG4zMtt6b_yAYv3g-] found
Submit result: d3RB90GYN0SiG4zMtt6b_yAYv3g- has been confirmed
Track | CTDB Status
  1   | (6/6) Accurately ripped
  2   | (6/6) Accurately ripped
  3   | (6/6) Accurately ripped
  4   | (3/6) Accurately ripped, or (3/6) differs in 27 samples @05:05:47,05:05:52-05:05:55
  5   | (6/6) Accurately ripped
  6   | (6/6) Accurately ripped
  7   | (6/6) Accurately ripped
  8   | (3/6) Accurately ripped, or (3/6) differs in 36 samples @05:35:44
==== Контрольная сумма отчёта 10ACA50DAB699C114848BAB5C76A8FAAF1E03CC5A7EE93840B986D82F5840DA8 ====
Код:
REM GENRE Rock
REM DATE 1980
REM DISCID 730B7108
REM COMMENT "ExactAudioCopy v1.1"
PERFORMER "Ulf Lundell"
TITLE "Langre Inat Landet - Cd 2"
FILE "Ulf Lundell - Langre Inat Landet - Cd 2.flac" WAVE
  TRACK 01 AUDIO
    TITLE "Battre Tider"
    PERFORMER "Ulf Lundell"
    INDEX 01 00:00:00
  TRACK 02 AUDIO
    TITLE "Ryggen Fri"
    PERFORMER "Ulf Lundell"
    INDEX 00 03:17:36
    INDEX 01 03:20:22
  TRACK 03 AUDIO
    TITLE "Under Askan"
    PERFORMER "Ulf Lundell"
    INDEX 00 09:25:50
    INDEX 01 09:30:12
  TRACK 04 AUDIO
    TITLE "Langre Inat Landet"
    PERFORMER "Ulf Lundell"
    INDEX 00 16:14:40
    INDEX 01 16:19:32
  TRACK 05 AUDIO
    TITLE "Posorerna"
    PERFORMER "Ulf Lundell"
    INDEX 00 24:23:74
    INDEX 01 24:26:52
  TRACK 06 AUDIO
    TITLE "Stackars Jack"
    PERFORMER "Ulf Lundell"
    INDEX 00 28:19:62
    INDEX 01 28:23:72
  TRACK 07 AUDIO
    TITLE "Distraherad"
    PERFORMER "Ulf Lundell"
    INDEX 00 32:50:03
    INDEX 01 32:54:42
  TRACK 08 AUDIO
    TITLE "Som En Syster"
    PERFORMER "Ulf Lundell"
    INDEX 00 42:44:63
    INDEX 01 42:47:12
Код:
-----------------------
DON'T MODIFY THIS FILE
-----------------------
PERFORMER: auCDtect Task Manager, ver. 1.5.1RC6 build 1.5.1.7
Copyright (c) 2008-2010 y-soft. All rights reserved
[url=http://y-soft.org]http://y-soft.org[/url]
ANALYZER: auCDtect: CD records authenticity detector, version 0.8.2
Copyright (c) 2004 Oleg Berngardt. All rights reserved.
Copyright (c) 2004 Alexander Djourik. All rights reserved.
FILE: Ulf Lundell - Langre Inat Landet - Cd 2.flac
  Size: 297124559 Hash: C2D15A96BD124C621149080319C30C42 Accuracy: -m0
  Conclusion: CDDA 100%
  Signature: E844CE707835DD805725320A3FFC1C9457258AC8












Правила, инструкции, FAQ!!!
Торрент  Добавлен [26 мар 2019, 19:17] Скачать торрент Магнет ссылка
Скачать торрент
[ Размер 12.94 КБ / Просмотров 0 ]

Статус
Проверен 
 
Размер  564.02 МБ
Приватный: Нет (DHT включён)
.torrent скачан  0
 


     Отправить личное сообщение
   
Страница 1 из 1
Показать сообщения за:  Поле сортировки  
Начать новую тему Ответить на тему


Сейчас этот форум просматривают: нет зарегистрированных пользователей и гости: 0


Вы не можете начинать темы
Вы не можете отвечать на сообщения
Вы не можете редактировать свои сообщения
Вы не можете удалять свои сообщения
Вы не можете добавлять вложения

Перейти:  
cron