Начать новую тему Ответить на тему
Статистика раздачи
Размер: 313.6 МБ | Добавлен: 26 мар 2019, 20:15 | Скачали: 0
Сидеров: 0  [0 байт/сек]    Личеров: 3  [0 байт/сек]
Пред. тема | След. тема 

Автор
Сообщение

СообщениеДобавлено: 26 мар 2019, 20:15 

Ответить с цитатой 

Johnny Hallyday / Jamais Seul
Жанр: Rock/Chanson Française
Страна-производитель диска: France
Год издания диска: 2011
Издатель (лейбл): Warner Music France
Номер по каталогу: 0825646743599
Аудио кодек: FLAC (*.flac)
Тип рипа: tracks+.cue
Битрейт аудио: lossless
Продолжительность: 00:47:18
Источник (релизер): собственный рип
Наличие сканов в содержимом раздачи: да
Информация об исполнителе:
Официальный сайт Johnny Hallyday
Wikipedia (на английском)
Wikipedia (на русском)
Доп. информация:
На диске также присутствует 15й мультимедийный трек, который не вошел в раздачу
Бонусный DVD: Johnny Hallyday - Jamais Seul (2011, Bonus DVD) [2011 г., Rock, DVD5]
Торрент перезалит, добавлен .cue.
01. Paul et Mick [0:03:21.34]
02. Guitar Hero [0:04:02.65]
03. Dandy [0:03:30.24]
04. La douceur de vivre [0:03:16.09]
05. Jamais seul [0:03:53.89]
06. Vous n'aurez pas ma peau [0:03:32.24]
07. Tanagra [0:04:37.52]
08. J'inspire [0:02:43.13]
09. Les herbes folles [0:03:26.98]
10. Ces deux la [0:02:42.54]
11. Elle a mis de l'eau [0:03:19.70]
12. England [0:03:08.26]
13. Jade dort [0:03:10.81]
14. Jalousie [0:02:32.25]
Код:
Exact Audio Copy V0.99 prebeta 5 from 4. May 2009
EAC extraction logfile from 4. April 2011, 13:58
Johnny Hallyday / Jamais Seul
Used drive  : TSSTcorpCD/DVDW SH-S182M   Adapter: 0  ID: 0
Read mode               : Secure
Utilize accurate stream : Yes
Defeat audio cache      : Yes
Make use of C2 pointers : No
Read offset correction                      : 6
Overread into Lead-In and Lead-Out          : No
Fill up missing offset samples with silence : Yes
Delete leading and trailing silent blocks   : No
Null samples used in CRC calculations       : Yes
Used interface                              : Installed external ASPI interface
Gap handling                                : Appended to previous track
Used output format              : User Defined Encoder
Selected bitrate                : 768 kBit/s
Quality                         : High
Add ID3 tag                     : No
Command line compressor         : C:\Program Files\Exact Audio Copy\FLAC\FLAC.EXE
Additional command line options : -V -8 -T "artist=%a" -T "title=%t" -T "album=%g" -T "date=%y" -T "tracknumber=%n" -T "genre=%m" %s
TOC of the extracted CD
     Track |   Start  |  Length  | Start sector | End sector
    ---------------------------------------------------------
        1  |  0:00.00 |  3:21.26 |         0    |    15100
        2  |  3:21.26 |  4:02.49 |     15101    |    33299
        3  |  7:24.00 |  3:30.18 |     33300    |    49067
        4  | 10:54.18 |  3:16.07 |     49068    |    63774
        5  | 14:10.25 |  3:53.67 |     63775    |    81316
        6  | 18:04.17 |  3:32.18 |     81317    |    97234
        7  | 21:36.35 |  4:37.39 |     97235    |   118048
        8  | 26:13.74 |  2:43.10 |    118049    |   130283
        9  | 28:57.09 |  3:26.74 |    130284    |   145807
       10  | 32:24.08 |  2:42.41 |    145808    |   157998
       11  | 35:06.49 |  3:19.53 |    157999    |   172976
       12  | 38:26.27 |  3:08.20 |    172977    |   187096
       13  | 41:34.47 |  3:10.61 |    187097    |   201407
       14  | 44:45.33 |  2:32.19 |    201408    |   212826
       15  | 49:49.52 |  6:36.46 |    224227    |   253972
Track  1
     Filename C:\Music\01 - Paul et Mick.wav
     Pre-gap length  0:00:02.00
     Peak level 100.0 %
     Track quality 100.0 %
     Test CRC C04BDBEB
     Copy CRC C04BDBEB
     Track not present in AccurateRip database
     Copy OK
Track  2
     Filename C:\Music\02 - Guitar Hero.wav
     Pre-gap length  0:00:00.69
     Peak level 100.0 %
     Track quality 100.0 %
     Test CRC 381D31D7
     Copy CRC 381D31D7
     Track not present in AccurateRip database
     Copy OK
Track  3
     Filename C:\Music\03 - Dandy.wav
     Pre-gap length  0:00:01.52
     Peak level 100.0 %
     Track quality 100.0 %
     Test CRC 3EA4C09C
     Copy CRC 3EA4C09C
     Track not present in AccurateRip database
     Copy OK
Track  4
     Filename C:\Music\04 - La douceur de vivre.wav
     Pre-gap length  0:00:02.21
     Peak level 100.0 %
     Track quality 100.0 %
     Test CRC FC4FBD69
     Copy CRC FC4FBD69
     Track not present in AccurateRip database
     Copy OK
Track  5
     Filename C:\Music\05 - Jamais seul.wav
     Pre-gap length  0:00:00.65
     Peak level 100.0 %
     Track quality 100.0 %
     Test CRC C6B28697
     Copy CRC C6B28697
     Track not present in AccurateRip database
     Copy OK
Track  6
     Filename C:\Music\06 - Vous n'aurez pas ma peau.wav
     Pre-gap length  0:00:01.32
     Peak level 100.0 %
     Track quality 100.0 %
     Test CRC 6C5A36C6
     Copy CRC 6C5A36C6
     Track not present in AccurateRip database
     Copy OK
Track  7
     Filename C:\Music\07 - Tanagra.wav
     Pre-gap length  0:00:01.22
     Peak level 100.0 %
     Track quality 100.0 %
     Test CRC BCB2E0B7
     Copy CRC BCB2E0B7
     Track not present in AccurateRip database
     Copy OK
Track  8
     Filename C:\Music\08 - J'inspire.wav
     Pre-gap length  0:00:00.38
     Peak level 100.0 %
     Track quality 100.0 %
     Test CRC 041F6AC7
     Copy CRC 041F6AC7
     Track not present in AccurateRip database
     Copy OK
Track  9
     Filename C:\Music\09 - Les herbes folles.wav
     Pre-gap length  0:00:01.42
     Peak level 100.0 %
     Track quality 100.0 %
     Test CRC 54FCC7F9
     Copy CRC 54FCC7F9
     Track not present in AccurateRip database
     Copy OK
Track 10
     Filename C:\Music\10 - Ces deux la.wav
     Pre-gap length  0:00:01.76
     Peak level 100.0 %
     Track quality 100.0 %
     Test CRC 8A1CAD70
     Copy CRC 8A1CAD70
     Track not present in AccurateRip database
     Copy OK
Track 11
     Filename C:\Music\11 - Elle a mis de l'eau.wav
     Pre-gap length  0:00:01.14
     Peak level 100.0 %
     Track quality 100.0 %
     Test CRC 5F73C602
     Copy CRC 5F73C602
     Track not present in AccurateRip database
     Copy OK
Track 12
     Filename C:\Music\12 - England.wav
     Pre-gap length  0:00:01.49
     Peak level 100.0 %
     Track quality 99.9 %
     Test CRC 0A709318
     Copy CRC 0A709318
     Track not present in AccurateRip database
     Copy OK
Track 13
     Filename C:\Music\13 - Jade dort.wav
     Pre-gap length  0:00:03.08
     Peak level 100.0 %
     Track quality 100.0 %
     Test CRC A4D5B859
     Copy CRC A4D5B859
     Track not present in AccurateRip database
     Copy OK
Track 14
     Filename C:\Music\14 - Jalousie.wav
     Pre-gap length  0:00:01.74
     Peak level 100.0 %
     Track quality 100.0 %
     Test CRC D081758A
     Copy CRC D081758A
     Track not present in AccurateRip database
     Copy OK
None of the tracks are present in the AccurateRip database
No errors occurred
End of status report
Код:
REM GENRE Rock
REM DATE 2011
REM DISCID EB0D3A0F
REM COMMENT "ExactAudioCopy v0.99pb5"
PERFORMER "Johnny Hallyday"
TITLE "Jamais Seul"
FILE "01 - Paul et Mick.wav" WAVE
  TRACK 01 AUDIO
    TITLE "Paul et Mick"
    PERFORMER "Johnny Hallyday"
    INDEX 01 00:00:00
  TRACK 02 AUDIO
    TITLE "Guitar Hero"
    PERFORMER "Johnny Hallyday"
    INDEX 00 03:20:49
FILE "02 - Guitar Hero.wav" WAVE
    INDEX 01 00:00:00
  TRACK 03 AUDIO
    TITLE "Dandy"
    PERFORMER "Johnny Hallyday"
    INDEX 00 04:01:10
FILE "03 - Dandy.wav" WAVE
    INDEX 01 00:00:00
  TRACK 04 AUDIO
    TITLE "La douceur de vivre"
    PERFORMER "Johnny Hallyday"
    INDEX 00 03:28:02
FILE "04 - La douceur de vivre.wav" WAVE
    INDEX 01 00:00:00
  TRACK 05 AUDIO
    TITLE "Jamais seul"
    PERFORMER "Johnny Hallyday"
    INDEX 00 03:15:34
FILE "05 - Jamais seul.wav" WAVE
    INDEX 01 00:00:00
  TRACK 06 AUDIO
    TITLE "Vous n'aurez pas ma peau"
    PERFORMER "Johnny Hallyday"
    INDEX 00 03:52:43
FILE "06 - Vous n'aurez pas ma peau.wav" WAVE
    INDEX 01 00:00:00
  TRACK 07 AUDIO
    TITLE "Tanagra"
    PERFORMER "Johnny Hallyday"
    INDEX 00 03:31:01
FILE "07 - Tanagra.wav" WAVE
    INDEX 01 00:00:00
  TRACK 08 AUDIO
    TITLE "J'inspire"
    PERFORMER "Johnny Hallyday"
    INDEX 00 04:37:10
FILE "08 - J'inspire.wav" WAVE
    INDEX 01 00:00:00
  TRACK 09 AUDIO
    TITLE "Les herbes folles"
    PERFORMER "Johnny Hallyday"
    INDEX 00 02:41:52
FILE "09 - Les herbes folles.wav" WAVE
    INDEX 01 00:00:00
  TRACK 10 AUDIO
    TITLE "Ces deux la"
    PERFORMER "Johnny Hallyday"
    INDEX 00 03:25:17
FILE "10 - Ces deux la.wav" WAVE
    INDEX 01 00:00:00
  TRACK 11 AUDIO
    TITLE "Elle a mis de l'eau"
    PERFORMER "Johnny Hallyday"
    INDEX 00 02:41:64
FILE "11 - Elle a mis de l'eau.wav" WAVE
    INDEX 01 00:00:00
  TRACK 12 AUDIO
    TITLE "England"
    PERFORMER "Johnny Hallyday"
    INDEX 00 03:18:54
FILE "12 - England.wav" WAVE
    INDEX 01 00:00:00
  TRACK 13 AUDIO
    TITLE "Jade dort"
    PERFORMER "Johnny Hallyday"
    INDEX 00 03:05:14
FILE "13 - Jade dort.wav" WAVE
    INDEX 01 00:00:00
  TRACK 14 AUDIO
    TITLE "Jalousie"
    PERFORMER "Johnny Hallyday"
    INDEX 00 03:09:05
FILE "14 - Jalousie.wav" WAVE
    INDEX 01 00:00:00
  TRACK 15 MODEx/2xxx
    TITLE "Track15"
    PERFORMER "Johnny Hallyday"
    INDEX 00 02:32:19
Правила, инструкции, FAQ!!!
Торрент  Добавлен [26 мар 2019, 20:15] Скачать торрент Магнет ссылка
Скачать торрент
[ Размер 13.79 КБ / Просмотров 6 ]

Статус
Проверен 
 
Размер  313.6 МБ
Приватный: Нет (DHT включён)
.torrent скачан  0
 


     Отправить личное сообщение
   
Страница 1 из 1
Показать сообщения за:  Поле сортировки  
Начать новую тему Ответить на тему


Сейчас этот форум просматривают: нет зарегистрированных пользователей и гости: 0


Вы не можете начинать темы
Вы не можете отвечать на сообщения
Вы не можете редактировать свои сообщения
Вы не можете удалять свои сообщения
Вы не можете добавлять вложения

Перейти:  
cron