Начать новую тему Ответить на тему
Статистика раздачи
Размер: 1.83 ГБ | Добавлен: 26 мар 2019, 19:24 | Скачали: 0
Сидеров: 0  [0 байт/сек]    Личеров: 0  [0 байт/сек]
Пред. тема | След. тема 

Автор
Сообщение

СообщениеДобавлено: 26 мар 2019, 19:24 

Ответить с цитатой 


Butch Walker

Жанр: Rock широкой гаммы расцветок | Откуда: USA, Georgia | Об: wiki, last.fm
Годы издания: 2002-2011 | Аудио кодек: FLAC | Тип рипа: tracks+.cue | Битрейт аудио: lossless | Продолжительность: 5:03:38
Лейбл: Arista
Продолжительность: 1:05:41
Сканы: нет
Источник: waffles.fm (alevevia)
Трэклист:
01 - Rock Vocal Power
02 - My Way
03 - Suburbia
04 - Trouble
05 - Alicia Amnesia
06 - Sober
07 - Into the Black
08 - Get Down
09 - Far Away From Close
10 - Diary of a San Fernando Sexx Star
11 - If (Jeannie's Song)
12 - Take Tomorrow (One Day at a Time)
13 - [Silence]
14 - Get Stupid With You
Доп. информация:
Код:
X Lossless Decoder version 20101212 (126.2)
XLD extraction logfile from 2011-01-29 11:38:39 -0500
Butch Walker / Left Of Self-Centered
Used drive : MATSHITA DVD-R   UJ-868 (revision KB19)
Ripper mode             : XLD Secure Ripper
Disable audio cache     : OK for the drive with a cache less than 1375KiB
Make use of C2 pointers : NO
Read offset correction  : 102
Max retry count         : 100
Gap status              : Analyzed, Appended (except HTOA)
TOC of the extracted CD
     Track |   Start  |  Length  | Start sector | End sector
    ---------------------------------------------------------
        1  | 00:00:00 | 01:56:55 |         0    |     8754
        2  | 01:56:55 | 04:00:25 |      8755    |    26779
        3  | 05:57:05 | 04:07:52 |     26780    |    45356
        4  | 10:04:57 | 03:58:03 |     45357    |    63209
        5  | 14:02:60 | 03:42:25 |     63210    |    79884
        6  | 17:45:10 | 03:20:65 |     79885    |    94949
        7  | 21:06:00 | 03:38:67 |     94950    |   111366
        8  | 24:44:67 | 04:03:65 |    111367    |   129656
        9  | 28:48:57 | 03:52:20 |    129657    |   147076
       10  | 32:41:02 | 03:39:63 |    147077    |   163564
       11  | 36:20:65 | 04:53:27 |    163565    |   185566
       12  | 41:14:17 | 04:30:15 |    185567    |   205831
       13  | 45:44:32 | 14:58:38 |    205832    |   273219
       14  | 60:42:70 | 04:58:30 |    273220    |   295599
AccurateRip Summary
    Track 01 : OK (confidence 7)
    Track 02 : OK (confidence 7)
    Track 03 : OK (confidence 7)
    Track 04 : OK (confidence 7)
    Track 05 : OK (confidence 7)
    Track 06 : OK (confidence 7)
    Track 07 : OK (confidence 7)
    Track 08 : OK (confidence 7)
    Track 09 : OK (confidence 7)
    Track 10 : OK (confidence 7)
    Track 11 : OK (confidence 7)
    Track 12 : OK (confidence 7)
    Track 13 : OK (confidence 6)
    Track 14 : OK (confidence 6)
        ->All tracks accurately ripped.
All Tracks
    Album gain             : -9.72 dB
    Peak                   : 0.998901
    Statistics
        Read error                           : 0
        Jitter error (maybe fixed)           : 0
        Retry sector count                   : 0
        Damaged sector count                 : 0
Track 01
    Filename : /Users/Erin/Downloads/01 - Rock Vocal Power.flac
    Pre-gap length : 00:02:00
    Track gain             : 1.25 dB
    Peak                   : 0.480499
    CRC32 hash (test run)  : 512444EE
    CRC32 hash             : 512444EE
    CRC32 hash (skip zero) : 35466000
    AccurateRip signature  : C6DBAADD
        ->Accurately ripped! (confidence 7)
    Statistics
        Read error                           : 0
        Jitter error (maybe fixed)           : 0
        Retry sector count                   : 0
        Damaged sector count                 : 0
Track 02
    Filename : /Users/Erin/Downloads/02 - My Way.flac
    Track gain             : -9.14 dB
    Peak                   : 0.998901
    CRC32 hash (test run)  : 0FBA6060
    CRC32 hash             : 0FBA6060
    CRC32 hash (skip zero) : 20106DAE
    AccurateRip signature  : 850011CF
        ->Accurately ripped! (confidence 7)
    Statistics
        Read error                           : 0
        Jitter error (maybe fixed)           : 0
        Retry sector count                   : 0
        Damaged sector count                 : 0
Track 03
    Filename : /Users/Erin/Downloads/03 - Suburbia.flac
    Track gain             : -10.00 dB
    Peak                   : 0.998840
    CRC32 hash (test run)  : 821BC3E1
    CRC32 hash             : 821BC3E1
    CRC32 hash (skip zero) : BD2DA202
    AccurateRip signature  : C11173A4
        ->Accurately ripped! (confidence 7)
    Statistics
        Read error                           : 0
        Jitter error (maybe fixed)           : 0
        Retry sector count                   : 0
        Damaged sector count                 : 0
Track 04
    Filename : /Users/Erin/Downloads/04 - Trouble.flac
    Track gain             : -9.35 dB
    Peak                   : 0.981171
    CRC32 hash (test run)  : A855EB0D
    CRC32 hash             : A855EB0D
    CRC32 hash (skip zero) : A2F8C577
    AccurateRip signature  : D7128A6B
        ->Accurately ripped! (confidence 7)
    Statistics
        Read error                           : 0
        Jitter error (maybe fixed)           : 0
        Retry sector count                   : 0
        Damaged sector count                 : 0
Track 05
    Filename : /Users/Erin/Downloads/05 - Alicia Amnesia.flac
    Track gain             : -9.89 dB
    Peak                   : 0.998688
    CRC32 hash (test run)  : 8A396007
    CRC32 hash             : 8A396007
    CRC32 hash (skip zero) : 2C12FA77
    AccurateRip signature  : DB84EF54
        ->Accurately ripped! (confidence 7)
    Statistics
        Read error                           : 0
        Jitter error (maybe fixed)           : 0
        Retry sector count                   : 0
        Damaged sector count                 : 0
Track 06
    Filename : /Users/Erin/Downloads/06 - Sober.flac
    Track gain             : -9.84 dB
    Peak                   : 0.998840
    CRC32 hash (test run)  : 533CD02A
    CRC32 hash             : 533CD02A
    CRC32 hash (skip zero) : 6500F5B3
    AccurateRip signature  : A033D63D
        ->Accurately ripped! (confidence 7)
    Statistics
        Read error                           : 0
        Jitter error (maybe fixed)           : 0
        Retry sector count                   : 0
        Damaged sector count                 : 0
Track 07
    Filename : /Users/Erin/Downloads/07 - Into The Black.flac
    Track gain             : -9.92 dB
    Peak                   : 0.989380
    CRC32 hash (test run)  : 07987C32
    CRC32 hash             : 07987C32
    CRC32 hash (skip zero) : F4034300
    AccurateRip signature  : 77449A03
        ->Accurately ripped! (confidence 7)
    Statistics
        Read error                           : 0
        Jitter error (maybe fixed)           : 0
        Retry sector count                   : 0
        Damaged sector count                 : 0
Track 08
    Filename : /Users/Erin/Downloads/08 - Get Down.flac
    Track gain             : -9.75 dB
    Peak                   : 0.998871
    CRC32 hash (test run)  : D695E50D
    CRC32 hash             : D695E50D
    CRC32 hash (skip zero) : AD740C95
    AccurateRip signature  : A96667CD
        ->Accurately ripped! (confidence 7)
    Statistics
        Read error                           : 0
        Jitter error (maybe fixed)           : 0
        Retry sector count                   : 0
        Damaged sector count                 : 0
Track 09
    Filename : /Users/Erin/Downloads/09 - Far Away From Close.flac
    Track gain             : -10.44 dB
    Peak                   : 0.992706
    CRC32 hash (test run)  : F55AFCAB
    CRC32 hash             : F55AFCAB
    CRC32 hash (skip zero) : 19D507FC
    AccurateRip signature  : 3FD9728B
        ->Accurately ripped! (confidence 7)
    Statistics
        Read error                           : 0
        Jitter error (maybe fixed)           : 0
        Retry sector count                   : 0
        Damaged sector count                 : 0
Track 10
    Filename : /Users/Erin/Downloads/10 - Diary Of A San Fernando Sexx Star.flac
    Track gain             : -9.93 dB
    Peak                   : 0.998871
    CRC32 hash (test run)  : E23A367C
    CRC32 hash             : E23A367C
    CRC32 hash (skip zero) : EFCB7848
    AccurateRip signature  : 57152787
        ->Accurately ripped! (confidence 7)
    Statistics
        Read error                           : 0
        Jitter error (maybe fixed)           : 0
        Retry sector count                   : 0
        Damaged sector count                 : 0
Track 11
    Filename : /Users/Erin/Downloads/11 - If (Jeannie's Song).flac
    Track gain             : -9.97 dB
    Peak                   : 0.998474
    CRC32 hash (test run)  : B53A7B72
    CRC32 hash             : B53A7B72
    CRC32 hash (skip zero) : C8F10882
    AccurateRip signature  : FB265075
        ->Accurately ripped! (confidence 7)
    Statistics
        Read error                           : 0
        Jitter error (maybe fixed)           : 0
        Retry sector count                   : 0
        Damaged sector count                 : 0
Track 12
    Filename : /Users/Erin/Downloads/12 - Take Tomorrow (One Day At A Time).flac
    Track gain             : -9.79 dB
    Peak                   : 0.998901
    CRC32 hash (test run)  : F671E0DA
    CRC32 hash             : F671E0DA
    CRC32 hash (skip zero) : 8A3C2A12
    AccurateRip signature  : 7C12193B
        ->Accurately ripped! (confidence 7)
    Statistics
        Read error                           : 0
        Jitter error (maybe fixed)           : 0
        Retry sector count                   : 0
        Damaged sector count                 : 0
Track 13
    Filename : /Users/Erin/Downloads/13 - [Silence].flac
    Track gain             : 64.81 dB
    Peak                   : 0.000031
    CRC32 hash (test run)  : BB90C4AB
    CRC32 hash             : BB90C4AB
    CRC32 hash (skip zero) : 0BC6C1B4
    AccurateRip signature  : 0C727CE3
        ->Accurately ripped! (confidence 6)
    Statistics
        Read error                           : 0
        Jitter error (maybe fixed)           : 0
        Retry sector count                   : 0
        Damaged sector count                 : 0
Track 14
    Filename : /Users/Erin/Downloads/14 - Get Stupid With You.flac
    Track gain             : -8.63 dB
    Peak                   : 0.998871
    CRC32 hash (test run)  : 9B90EA18
    CRC32 hash             : 9B90EA18
    CRC32 hash (skip zero) : FA84B4A7
    AccurateRip signature  : 62A02B01
        ->Accurately ripped! (confidence 6)
    Statistics
        Read error                           : 0
        Jitter error (maybe fixed)           : 0
        Retry sector count                   : 0
        Damaged sector count                 : 0
No errors occurred
End of status report
AUDIOCHECKER v2.0 beta (build 457) - by Dester - opdester@freemail.hu
~~~~~~~~~~~~~~~~~~~~~~~~~~~~~~~~~~
-=== DO NOT EDIT THIS FILE! ===-
Path: ...\2002 - Left of Self-Centered
01 -=- 01 - Rock Vocal Power.flac -=- CDDA (100%)
02 -=- 02 - My Way.flac -=- CDDA (100%)
03 -=- 03 - Suburbia.flac -=- CDDA (99%)
04 -=- 04 - Trouble.flac -=- CDDA (100%)
05 -=- 05 - Alicia Amnesia.flac -=- CDDA (100%)
06 -=- 06 - Sober.flac -=- CDDA (100%)
07 -=- 07 - Into the Black.flac -=- CDDA (100%)
08 -=- 08 - Get Down.flac -=- CDDA (100%)
09 -=- 09 - Far Away From Close.flac -=- CDDA (99%)
10 -=- 10 - Diary of a San Fernando Sexx Star.flac -=- CDDA (100%)
11 -=- 11 - If (Jeannie's Song).flac -=- CDDA (100%)
12 -=- 12 - Take Tomorrow (One Day at a Time).flac -=- CDDA (100%)
13 -=- 13 - [Silence].flac -=- CDDA (100%)
14 -=- 14 - Get Stupid With You.flac -=- CDDA (100%)
Summary 99.86% CDDA
248609604
Код:
TITLE "Left of Self-Centered"
PERFORMER "Butch Walker"
REM GENRE "Rock"
REM DATE 2002
REM DISCNUMBER 1
REM TOTALDISCS 1
REM DISCID CD0F650E
FILE "01 - Rock Vocal Power.wav" WAVE
  TRACK 01 AUDIO
    TITLE "Rock Vocal Power"
    PERFORMER "Butch Walker"
    ISRC USAR10200117
    INDEX 01 00:00:00
FILE "02 - My Way.wav" WAVE
  TRACK 02 AUDIO
    TITLE "My Way"
    PERFORMER "Butch Walker"
    ISRC USAR10200109
    INDEX 01 00:00:00
FILE "03 - Suburbia.wav" WAVE
  TRACK 03 AUDIO
    TITLE "Suburbia"
    PERFORMER "Butch Walker"
    ISRC USAR10200110
    INDEX 01 00:00:00
FILE "04 - Trouble.wav" WAVE
  TRACK 04 AUDIO
    TITLE "Trouble"
    PERFORMER "Butch Walker"
    ISRC USAR10200116
    INDEX 01 00:00:00
FILE "05 - Alicia Amnesia.wav" WAVE
  TRACK 05 AUDIO
    TITLE "Alicia Amnesia"
    PERFORMER "Butch Walker"
    ISRC USAR10200112
    INDEX 01 00:00:00
FILE "06 - Sober.wav" WAVE
  TRACK 06 AUDIO
    TITLE "Sober"
    PERFORMER "Butch Walker"
    ISRC USAR10200113
    INDEX 01 00:00:00
FILE "07 - Into the Black.wav" WAVE
  TRACK 07 AUDIO
    TITLE "Into the Black"
    PERFORMER "Butch Walker"
    ISRC USAR10200114
    INDEX 01 00:00:00
FILE "08 - Get Down.wav" WAVE
  TRACK 08 AUDIO
    TITLE "Get Down"
    PERFORMER "Butch Walker"
    ISRC USAR10200115
    INDEX 01 00:00:00
FILE "09 - Far Away From Close.wav" WAVE
  TRACK 09 AUDIO
    TITLE "Far Away From Close"
    PERFORMER "Butch Walker"
    ISRC USAR10200111
    INDEX 01 00:00:00
FILE "10 - Diary of a San Fernando Sexx Star.wav" WAVE
  TRACK 10 AUDIO
    TITLE "Diary of a San Fernando Sexx Star"
    PERFORMER "Butch Walker"
    ISRC USAR10200118
    INDEX 01 00:00:00
FILE "11 - If (Jeannie's Song).wav" WAVE
  TRACK 11 AUDIO
    TITLE "If (Jeannie's Song)"
    PERFORMER "Butch Walker"
    ISRC USAR10200119
    INDEX 01 00:00:00
FILE "12 - Take Tomorrow (One Day at a Time).wav" WAVE
  TRACK 12 AUDIO
    TITLE "Take Tomorrow (One Day at a Time)"
    PERFORMER "Butch Walker"
    ISRC USAR10200120
    INDEX 01 00:00:00
FILE "13 - [Silence].wav" WAVE
  TRACK 13 AUDIO
    TITLE "[Silence]"
    PERFORMER "Butch Walker"
    INDEX 01 00:00:00
FILE "14 - Get Stupid With You.wav" WAVE
  TRACK 14 AUDIO
    TITLE "Get Stupid With You"
    PERFORMER "Butch Walker"
    INDEX 01 00:00:00
#777Лейбл: Epic
Продолжительность: 57:52
Сканы: нет
Источник: what.cd (Jinjonator)
Трэклист:
01 - Sunny Day Real Estate
02 - Maybe It's Just Me
03 - Mixtape
04 - #1 Summer Jam
05 - So at Last
06 - Uncomfortably Numb
07 - Joan
08 - Don't Move
09 - Lights Out
10 - Best Thing You Never Had
11 - Race Cars and Goth Rock
12 - Promise
13 - Thank-You Note
Bonus tracks:
14 - Last Flight Out
15 - My Best Friend's Magic Girlfriend
Доп. информация:
Код:
X Lossless Decoder version 20101212 (126.2)
XLD extraction logfile from 2011-01-27 18:01:52 -0500
Butch Walker / Letters (Japanese Edition)
Used drive : HL-DT-ST DVDRW  GS23N (revision SB07)
Ripper mode             : CDParanoia III 10.2
Disable audio cache     : OK for the drive with a cache less than 2750KiB
Make use of C2 pointers : NO
Read offset correction  : 667
Max retry count         : 100
Gap status              : Analyzed, Appended
TOC of the extracted CD
     Track |   Start  |  Length  | Start sector | End sector
    ---------------------------------------------------------
        1  | 00:00:00 | 00:28:60 |         0    |     2159
        2  | 00:28:60 | 03:20:65 |      2160    |    17224
        3  | 03:49:50 | 04:05:20 |     17225    |    35619
        4  | 07:54:70 | 03:28:28 |     35620    |    51247
        5  | 11:23:23 | 05:28:47 |     51248    |    75894
        6  | 16:51:70 | 03:33:70 |     75895    |    91939
        7  | 20:25:65 | 04:20:11 |     91940    |   111450
        8  | 24:46:01 | 04:08:40 |    111451    |   130090
        9  | 28:54:41 | 02:51:31 |    130091    |   142946
       10  | 31:45:72 | 05:29:56 |    142947    |   167677
       11  | 37:15:53 | 03:02:27 |    167678    |   181354
       12  | 40:18:05 | 03:04:13 |    181355    |   195167
       13  | 43:22:18 | 03:09:42 |    195168    |   209384
       14  | 46:31:60 | 03:46:68 |    209385    |   226402
       15  | 50:18:53 | 03:25:22 |    226403    |   241799
       16  | 53:44:00 | 04:18:44 |    241800    |   261193
AccurateRip Summary
    Disc not found in AccurateRip DB.
All Tracks
    Album gain             : -9.34 dB
    Peak                   : 1.000000
    Statistics
        Read error                           : 0
        Skipped (treated as error)           : 0
        Edge jitter error (maybe fixed)      : 0
        Atom jitter error (maybe fixed)      : 0
        Drift error (maybe fixed)            : 0
        Dropped bytes error (maybe fixed)    : 0
        Duplicated bytes error (maybe fixed) : 0
Track 01
    Filename : /Users/Akinatopsia/Desktop/Butch Walker - Letters (Japanese Edition) [FLAC]/01 - Sunny Day Real Estate.flac
    Pre-gap length : 00:02:00
    Track gain             : 5.86 dB
    Peak                   : 0.286163
    CRC32 hash (test run)  : 4D34F64A
    CRC32 hash             : 4D34F64A
    CRC32 hash (skip zero) : A5566C5E
    AccurateRip signature  : C7423535
        ->Track not present in AccurateRip database.
    Statistics
        Read error                           : 0
        Skipped (treated as error)           : 0
        Edge jitter error (maybe fixed)      : 0
        Atom jitter error (maybe fixed)      : 0
        Drift error (maybe fixed)            : 0
        Dropped bytes error (maybe fixed)    : 0
        Duplicated bytes error (maybe fixed) : 0
        Inconsistency in error sectors       : 0
Track 02
    Filename : /Users/Akinatopsia/Desktop/Butch Walker - Letters (Japanese Edition) [FLAC]/02 - Maybe It's Just Me.flac
    Track gain             : -9.34 dB
    Peak                   : 0.999969
    CRC32 hash (test run)  : 3754088C
    CRC32 hash             : 3754088C
    CRC32 hash (skip zero) : FA7803C1
    AccurateRip signature  : 20DD1376
        ->Track not present in AccurateRip database.
    Statistics
        Read error                           : 0
        Skipped (treated as error)           : 0
        Edge jitter error (maybe fixed)      : 0
        Atom jitter error (maybe fixed)      : 0
        Drift error (maybe fixed)            : 0
        Dropped bytes error (maybe fixed)    : 0
        Duplicated bytes error (maybe fixed) : 0
        Inconsistency in error sectors       : 0
Track 03
    Filename : /Users/Akinatopsia/Desktop/Butch Walker - Letters (Japanese Edition) [FLAC]/03 - Mixtape.flac
    Track gain             : -10.20 dB
    Peak                   : 0.999969
    CRC32 hash (test run)  : 05505561
    CRC32 hash             : 05505561
    CRC32 hash (skip zero) : 93CBACF5
    AccurateRip signature  : FEB54C00
        ->Track not present in AccurateRip database.
    Statistics
        Read error                           : 0
        Skipped (treated as error)           : 0
        Edge jitter error (maybe fixed)      : 0
        Atom jitter error (maybe fixed)      : 0
        Drift error (maybe fixed)            : 0
        Dropped bytes error (maybe fixed)    : 0
        Duplicated bytes error (maybe fixed) : 0
        Inconsistency in error sectors       : 0
Track 04
    Filename : /Users/Akinatopsia/Desktop/Butch Walker - Letters (Japanese Edition) [FLAC]/04 - #1 Summer Jam.flac
    Track gain             : -10.33 dB
    Peak                   : 0.999969
    CRC32 hash (test run)  : D868AAC4
    CRC32 hash             : D868AAC4
    CRC32 hash (skip zero) : E7A54858
    AccurateRip signature  : C249F466
        ->Track not present in AccurateRip database.
    Statistics
        Read error                           : 0
        Skipped (treated as error)           : 0
        Edge jitter error (maybe fixed)      : 0
        Atom jitter error (maybe fixed)      : 0
        Drift error (maybe fixed)            : 0
        Dropped bytes error (maybe fixed)    : 0
        Duplicated bytes error (maybe fixed) : 0
        Inconsistency in error sectors       : 0
Track 05
    Filename : /Users/Akinatopsia/Desktop/Butch Walker - Letters (Japanese Edition) [FLAC]/05 - So At Last.flac
    Track gain             : -7.60 dB
    Peak                   : 0.999969
    CRC32 hash (test run)  : 2EBAD7CC
    CRC32 hash             : 2EBAD7CC
    CRC32 hash (skip zero) : FE42F783
    AccurateRip signature  : C8129CF5
        ->Track not present in AccurateRip database.
    Statistics
        Read error                           : 0
        Skipped (treated as error)           : 0
        Edge jitter error (maybe fixed)      : 0
        Atom jitter error (maybe fixed)      : 0
        Drift error (maybe fixed)            : 0
        Dropped bytes error (maybe fixed)    : 0
        Duplicated bytes error (maybe fixed) : 0
        Inconsistency in error sectors       : 0
Track 06
    Filename : /Users/Akinatopsia/Desktop/Butch Walker - Letters (Japanese Edition) [FLAC]/06 - Uncomfortably Numb.flac
    Pre-gap length : 00:01:08
    Track gain             : -9.66 dB
    Peak                   : 0.999969
    CRC32 hash (test run)  : A54BFA64
    CRC32 hash             : A54BFA64
    CRC32 hash (skip zero) : F5BD057C
    AccurateRip signature  : B8903090
        ->Track not present in AccurateRip database.
    Statistics
        Read error                           : 0
        Skipped (treated as error)           : 0
        Edge jitter error (maybe fixed)      : 0
        Atom jitter error (maybe fixed)      : 0
        Drift error (maybe fixed)            : 0
        Dropped bytes error (maybe fixed)    : 0
        Duplicated bytes error (maybe fixed) : 0
        Inconsistency in error sectors       : 0
Track 07
    Filename : /Users/Akinatopsia/Desktop/Butch Walker - Letters (Japanese Edition) [FLAC]/07 - Joan.flac
    Track gain             : -6.94 dB
    Peak                   : 0.999969
    CRC32 hash (test run)  : B87CE3EC
    CRC32 hash             : B87CE3EC
    CRC32 hash (skip zero) : C49E901A
    AccurateRip signature  : FF73FBBB
        ->Track not present in AccurateRip database.
    Statistics
        Read error                           : 0
        Skipped (treated as error)           : 0
        Edge jitter error (maybe fixed)      : 0
        Atom jitter error (maybe fixed)      : 0
        Drift error (maybe fixed)            : 0
        Dropped bytes error (maybe fixed)    : 0
        Duplicated bytes error (maybe fixed) : 0
        Inconsistency in error sectors       : 0
Track 08
    Filename : /Users/Akinatopsia/Desktop/Butch Walker - Letters (Japanese Edition) [FLAC]/08 - Don't Move.flac
    Track gain             : -9.02 dB
    Peak                   : 0.999969
    CRC32 hash (test run)  : 2DA8D1FB
    CRC32 hash             : 2DA8D1FB
    CRC32 hash (skip zero) : 7C03F915
    AccurateRip signature  : B8D182AE
        ->Track not present in AccurateRip database.
    Statistics
        Read error                           : 0
        Skipped (treated as error)           : 0
        Edge jitter error (maybe fixed)      : 0
        Atom jitter error (maybe fixed)      : 0
        Drift error (maybe fixed)            : 0
        Dropped bytes error (maybe fixed)    : 0
        Duplicated bytes error (maybe fixed) : 0
        Inconsistency in error sectors       : 0
Track 09
    Filename : /Users/Akinatopsia/Desktop/Butch Walker - Letters (Japanese Edition) [FLAC]/09 - Lights Out.flac
    Track gain             : -9.78 dB
    Peak                   : 1.000000
    CRC32 hash (test run)  : BC8ADDE8
    CRC32 hash             : BC8ADDE8
    CRC32 hash (skip zero) : 79B1B0A2
    AccurateRip signature  : 7E982101
        ->Track not present in AccurateRip database.
    Statistics
        Read error                           : 0
        Skipped (treated as error)           : 0
        Edge jitter error (maybe fixed)      : 0
        Atom jitter error (maybe fixed)      : 0
        Drift error (maybe fixed)            : 0
        Dropped bytes error (maybe fixed)    : 0
        Duplicated bytes error (maybe fixed) : 0
        Inconsistency in error sectors       : 0
Track 10
    Filename : /Users/Akinatopsia/Desktop/Butch Walker - Letters (Japanese Edition) [FLAC]/10 - Best Thing You Never Had.flac
    Track gain             : -8.72 dB
    Peak                   : 0.999969
    CRC32 hash (test run)  : 052822B0
    CRC32 hash             : 052822B0
    CRC32 hash (skip zero) : 7CDBE755
    AccurateRip signature  : 97F8835E
        ->Track not present in AccurateRip database.
    Statistics
        Read error                           : 0
        Skipped (treated as error)           : 0
        Edge jitter error (maybe fixed)      : 0
        Atom jitter error (maybe fixed)      : 0
        Drift error (maybe fixed)            : 0
        Dropped bytes error (maybe fixed)    : 0
        Duplicated bytes error (maybe fixed) : 0
        Inconsistency in error sectors       : 0
Track 11
    Filename : /Users/Akinatopsia/Desktop/Butch Walker - Letters (Japanese Edition) [FLAC]/11 - Race Cars And Goth Rock.flac
    Track gain             : -8.83 dB
    Peak                   : 0.999969
    CRC32 hash (test run)  : DF9C6533
    CRC32 hash             : DF9C6533
    CRC32 hash (skip zero) : 18100D25
    AccurateRip signature  : E3A853BA
        ->Track not present in AccurateRip database.
    Statistics
        Read error                           : 0
        Skipped (treated as error)           : 0
        Edge jitter error (maybe fixed)      : 0
        Atom jitter error (maybe fixed)      : 0
        Drift error (maybe fixed)            : 0
        Dropped bytes error (maybe fixed)    : 0
        Duplicated bytes error (maybe fixed) : 0
        Inconsistency in error sectors       : 0
Track 12
    Filename : /Users/Akinatopsia/Desktop/Butch Walker - Letters (Japanese Edition) [FLAC]/12 - Promise.flac
    Track gain             : -4.28 dB
    Peak                   : 0.999969
    CRC32 hash (test run)  : DBB12144
    CRC32 hash             : DBB12144
    CRC32 hash (skip zero) : 891EEF71
    AccurateRip signature  : DCB9BF2E
        ->Track not present in AccurateRip database.
    Statistics
        Read error                           : 0
        Skipped (treated as error)           : 0
        Edge jitter error (maybe fixed)      : 0
        Atom jitter error (maybe fixed)      : 0
        Drift error (maybe fixed)            : 0
        Dropped bytes error (maybe fixed)    : 0
        Duplicated bytes error (maybe fixed) : 0
        Inconsistency in error sectors       : 0
Track 13
    Filename : /Users/Akinatopsia/Desktop/Butch Walker - Letters (Japanese Edition) [FLAC]/13 - Thank-You Note.flac
    Pre-gap length : 00:02:41
    Track gain             : -4.96 dB
    Peak                   : 0.999969
    CRC32 hash (test run)  : F56F4BC8
    CRC32 hash             : F56F4BC8
    CRC32 hash (skip zero) : 2586E1BB
    AccurateRip signature  : E4135E3A
        ->Track not present in AccurateRip database.
    Statistics
        Read error                           : 0
        Skipped (treated as error)           : 0
        Edge jitter error (maybe fixed)      : 0
        Atom jitter error (maybe fixed)      : 0
        Drift error (maybe fixed)            : 0
        Dropped bytes error (maybe fixed)    : 0
        Duplicated bytes error (maybe fixed) : 0
        Inconsistency in error sectors       : 0
Track 14
    Filename : /Users/Akinatopsia/Desktop/Butch Walker - Letters (Japanese Edition) [FLAC]/14 - Last Flight Out.flac
    Pre-gap length : 00:02:04
    Track gain             : -10.26 dB
    Peak                   : 0.922699
    CRC32 hash (test run)  : A19D19B3
    CRC32 hash             : A19D19B3
    CRC32 hash (skip zero) : 2CE9E93C
    AccurateRip signature  : 11A83AEB
        ->Track not present in AccurateRip database.
    Statistics
        Read error                           : 0
        Skipped (treated as error)           : 0
        Edge jitter error (maybe fixed)      : 0
        Atom jitter error (maybe fixed)      : 0
        Drift error (maybe fixed)            : 0
        Dropped bytes error (maybe fixed)    : 0
        Duplicated bytes error (maybe fixed) : 0
        Inconsistency in error sectors       : 0
Track 15
    Filename : /Users/Akinatopsia/Desktop/Butch Walker - Letters (Japanese Edition) [FLAC]/15 - My Best Friend's Magic Girlfriend.flac
    Pre-gap length : 00:01:30
    Track gain             : -6.04 dB
    Peak                   : 0.933258
    CRC32 hash (test run)  : A21537CF
    CRC32 hash             : A21537CF
    CRC32 hash (skip zero) : 1EAFE465
    AccurateRip signature  : 40712592
        ->Track not present in AccurateRip database.
    Statistics
        Read error                           : 0
        Skipped (treated as error)           : 0
        Edge jitter error (maybe fixed)      : 0
        Atom jitter error (maybe fixed)      : 0
        Drift error (maybe fixed)            : 0
        Dropped bytes error (maybe fixed)    : 0
        Duplicated bytes error (maybe fixed) : 0
        Inconsistency in error sectors       : 0
Track 16
    Filename : /Users/Akinatopsia/Desktop/Butch Walker - Letters (Japanese Edition) [FLAC]/16 - State Line [Hidden Track].flac
    Pre-gap length : 00:02:47
    Track gain             : -8.15 dB
    Peak                   : 0.999969
    CRC32 hash (test run)  : 4ABDF06E
    CRC32 hash             : 4ABDF06E
    CRC32 hash (skip zero) : DE416FDC
    AccurateRip signature  : B2FD4432
        ->Track not present in AccurateRip database.
    Statistics
        Read error                           : 0
        Skipped (treated as error)           : 0
        Edge jitter error (maybe fixed)      : 0
        Atom jitter error (maybe fixed)      : 0
        Drift error (maybe fixed)            : 0
        Dropped bytes error (maybe fixed)    : 0
        Duplicated bytes error (maybe fixed) : 0
        Inconsistency in error sectors       : 0
No errors occurred
End of status report
AUDIOCHECKER v2.0 beta (build 457) - by Dester - opdester@freemail.hu
~~~~~~~~~~~~~~~~~~~~~~~~~~~~~~~~~~
-=== DO NOT EDIT THIS FILE! ===-
Path: ...\2004 - Letters [Japanese Edition]
01 -=- 01 - Sunny Day Real Estate.flac -=- MPEG (95%)
02 -=- 02 - Maybe It's Just Me.flac -=- CDDA (100%)
03 -=- 03 - Mixtape.flac -=- CDDA (100%)
04 -=- 04 - #1 Summer Jam.flac -=- CDDA (100%)
05 -=- 05 - So at Last.flac -=- CDDA (100%)
06 -=- 06 - Uncomfortably Numb.flac -=- CDDA (100%)
07 -=- 07 - Joan.flac -=- CDDA (85%)
08 -=- 08 - Don't Move.flac -=- CDDA (99%)
09 -=- 09 - Lights Out.flac -=- CDDA (100%)
10 -=- 10 - Best Thing You Never Had.flac -=- CDDA (100%)
11 -=- 11 - Race Cars and Goth Rock.flac -=- CDDA (99%)
12 -=- 12 - Promise.flac -=- CDDA (99%)
13 -=- 13 - Thank-You Note.flac -=- CDDA (100%)
14 -=- 14 - Last Flight Out.flac -=- CDDA (100%)
15 -=- 15 - My Best Friend's Magic Girlfriend.flac -=- MPEG (99%)
16 -=- 16 - State Line.flac -=- CDDA (100%)
Summary 86.75% CDDA
258343716
Код:
TITLE "Letters"
PERFORMER "Butch Walker"
REM GENRE "Rock"
REM DATE 2004
REM DISCID C00D9A10
FILE "01 - Sunny Day Real Estate.wav" WAVE
  TRACK 01 AUDIO
    TITLE "Sunny Day Real Estate"
    SONGWRITER "Butch Walker"
    ISRC USSM10404831
    INDEX 01 00:00:00
FILE "02 - Maybe It's Just Me.wav" WAVE
  TRACK 02 AUDIO
    TITLE "Maybe It's Just Me"
    SONGWRITER "Butch Walker"
    ISRC USSM10404832
    INDEX 01 00:00:00
FILE "03 - Mixtape.wav" WAVE
  TRACK 03 AUDIO
    TITLE "Mixtape"
    SONGWRITER "Butch Walker"
    ISRC USSM10404833
    INDEX 01 00:00:00
FILE "04 - #1 Summer Jam.wav" WAVE
  TRACK 04 AUDIO
    TITLE "#1 Summer Jam"
    SONGWRITER "Butch Walker"
    ISRC USSM10404834
    INDEX 01 00:00:00
FILE "05 - So at Last.wav" WAVE
  TRACK 05 AUDIO
    TITLE "So at Last"
    SONGWRITER "Butch Walker"
    ISRC USSM10404835
    INDEX 01 00:00:00
  TRACK 06 AUDIO
    TITLE "Uncomfortably Numb"
    SONGWRITER "Butch Walker"
    ISRC USSM10404836
    INDEX 00 05:27:39
FILE "06 - Uncomfortably Numb.wav" WAVE
    INDEX 01 00:00:00
FILE "07 - Joan.wav" WAVE
  TRACK 07 AUDIO
    TITLE "Joan"
    SONGWRITER "Butch Walker"
    ISRC USSM10404837
    INDEX 01 00:00:00
FILE "08 - Don't Move.wav" WAVE
  TRACK 08 AUDIO
    TITLE "Don't Move"
    SONGWRITER "Butch Walker"
    ISRC USSM10404838
    INDEX 01 00:00:00
FILE "09 - Lights Out.wav" WAVE
  TRACK 09 AUDIO
    TITLE "Lights Out"
    SONGWRITER "Butch Walker"
    ISRC USSM10404839
    INDEX 01 00:00:00
FILE "10 - Best Thing You Never Had.wav" WAVE
  TRACK 10 AUDIO
    TITLE "Best Thing You Never Had"
    SONGWRITER "Butch Walker"
    ISRC USSM10404840
    INDEX 01 00:00:00
FILE "11 - Race Cars and Goth Rock.wav" WAVE
  TRACK 11 AUDIO
    TITLE "Race Cars and Goth Rock"
    SONGWRITER "Butch Walker"
    ISRC USSM10404841
    INDEX 01 00:00:00
FILE "12 - Promise.wav" WAVE
  TRACK 12 AUDIO
    TITLE "Promise"
    SONGWRITER "Butch Walker"
    ISRC USSM10404843
    INDEX 01 00:00:00
  TRACK 13 AUDIO
    TITLE "Thank-You Note"
    SONGWRITER "Butch Walker"
    ISRC USSM10404844
    INDEX 00 03:01:47
FILE "13 - Thank-You Note.wav" WAVE
    INDEX 01 00:00:00
  TRACK 14 AUDIO
    TITLE "Last Flight Out"
    SONGWRITER "Butch Walker"
    ISRC USSM10406634
    INDEX 00 03:07:38
FILE "14 - Last Flight Out.wav" WAVE
    INDEX 01 00:00:00
  TRACK 15 AUDIO
    TITLE "My Best Friend's Magic Girlfriend"
    SONGWRITER "Butch Walker"
    ISRC USSM10406632
    INDEX 00 03:45:38
FILE "15 - My Best Friend's Magic Girlfriend.wav" WAVE
    INDEX 01 00:00:00
  TRACK 16 AUDIO
    TITLE "State Line"
    SONGWRITER "Butch Walker"
    ISRC USSM10404845
    INDEX 00 03:22:50
FILE "16 - State Line.wav" WAVE
    INDEX 01 00:00:00
#777Лейбл: Epic
Продолжительность: 43:27
Сканы: нет
Источник: waffles.fm (alevevia)
Трэклист:
01 - Oooh.. Aaah...
02 - Hot Girls in Good Moods
03 - Ladies and Gentlemen... "The Let's-Go-Out-Tonites!"
04 - Bethamphetamine (Pretty Pretty)
05 - Too Famous to Get Fully Dressed
06 - We're All Going Down
07 - Dominoes
08 - Paid to Get Excited
09 - Song Without a Chorus
10 - The Taste of Red
11 - Rich People Die Unhappy
12 - This Is the Sweetest Little Song
13 - When Canyons Ruled the City
Доп. информация:
Код:
X Lossless Decoder version 20101212 (126.2)
XLD extraction logfile from 2011-01-29 10:25:30 -0500
Butch Walker / The Rise And Fall Of Butch Walker And The Let's-Go-Out-Tonites!
Used drive : MATSHITA DVD-R   UJ-868 (revision KB19)
Ripper mode             : XLD Secure Ripper
Disable audio cache     : OK for the drive with a cache less than 1375KiB
Make use of C2 pointers : NO
Read offset correction  : 102
Max retry count         : 100
Gap status              : Analyzed, Appended (except HTOA)
TOC of the extracted CD
     Track |   Start  |  Length  | Start sector | End sector
    ---------------------------------------------------------
        1  | 00:00:00 | 00:21:59 |         0    |     1633
        2  | 00:21:59 | 03:45:12 |      1634    |    18520
        3  | 04:06:71 | 03:43:45 |     18521    |    35290
        4  | 07:50:41 | 03:09:28 |     35291    |    49493
        5  | 10:59:69 | 03:04:16 |     49494    |    63309
        6  | 14:04:10 | 04:16:07 |     63310    |    82516
        7  | 18:20:17 | 03:57:53 |     82517    |   100344
        8  | 22:17:70 | 03:00:12 |    100345    |   113856
        9  | 25:18:07 | 02:36:37 |    113857    |   125593
       10  | 27:54:44 | 04:05:53 |    125594    |   144021
       11  | 32:00:22 | 02:28:70 |    144022    |   155191
       12  | 34:29:17 | 04:13:46 |    155192    |   174212
       13  | 38:42:63 | 04:44:14 |    174213    |   195526
List of alternate offset correction values
        #  | Absolute | Relative | Confidence
    ------------------------------------------
        1  |    748   |    646   |      8
AccurateRip Summary
    Track 01 : OK (confidence 8, with different offset)
    Track 02 : OK (confidence 8, with different offset)
    Track 03 : OK (confidence 8, with different offset)
    Track 04 : OK (confidence 8, with different offset)
    Track 05 : OK (confidence 8, with different offset)
    Track 06 : OK (confidence 8, with different offset)
    Track 07 : OK (confidence 8, with different offset)
    Track 08 : OK (confidence 8, with different offset)
    Track 09 : OK (confidence 8, with different offset)
    Track 10 : OK (confidence 8, with different offset)
    Track 11 : OK (confidence 8, with different offset)
    Track 12 : OK (confidence 8, with different offset)
    Track 13 : OK (confidence 8, with different offset)
        ->All tracks accurately ripped.
All Tracks
    Album gain             : -10.38 dB
    Peak                   : 1.000000
    Statistics
        Read error                           : 0
        Jitter error (maybe fixed)           : 0
        Retry sector count                   : 0
        Damaged sector count                 : 0
Track 01
    Filename : /Users/Erin/Downloads/01 - Oooh.. Aaah....flac
    Pre-gap length : 00:02:00
    Track gain             : -2.34 dB
    Peak                   : 0.840942
    CRC32 hash (test run)  : F7B62784
    CRC32 hash             : F7B62784
    CRC32 hash (skip zero) : 20EB5873
    AccurateRip signature  : 2740DD41
        ->Accurately ripped! (confidence 8)
          (matched with the different offset correction value;
           calculated using an additional offset of 646;
           the signature after correction is: F5A99998)
    Statistics
        Read error                           : 0
        Jitter error (maybe fixed)           : 0
        Retry sector count                   : 0
        Damaged sector count                 : 0
Track 02
    Filename : /Users/Erin/Downloads/02 - Hot Girls In Good Moods.flac
    Track gain             : -10.54 dB
    Peak                   : 0.999969
    CRC32 hash (test run)  : F873BCB6
    CRC32 hash             : F873BCB6
    CRC32 hash (skip zero) : 3AEF1CCA
    AccurateRip signature  : CBEEE68A
        ->Accurately ripped! (confidence 8)
          (matched with the different offset correction value;
           calculated using an additional offset of 646;
           the signature after correction is: 43838C16)
    Statistics
        Read error                           : 0
        Jitter error (maybe fixed)           : 0
        Retry sector count                   : 0
        Damaged sector count                 : 0
Track 03
    Filename : /Users/Erin/Downloads/03 - Ladies And Gentlemen... "The Let's-Go-Out-Tonites!".flac
    Track gain             : -11.22 dB
    Peak                   : 1.000000
    CRC32 hash (test run)  : 038A4ADF
    CRC32 hash             : 038A4ADF
    CRC32 hash (skip zero) : 5F83DAB8
    AccurateRip signature  : 2AC4C927
        ->Accurately ripped! (confidence 8)
          (matched with the different offset correction value;
           calculated using an additional offset of 646;
           the signature after correction is: BE23FF72)
    Statistics
        Read error                           : 0
        Jitter error (maybe fixed)           : 0
        Retry sector count                   : 0
        Damaged sector count                 : 0
Track 04
    Filename : /Users/Erin/Downloads/04 - Bethamphetamine (Pretty Pretty).flac
    Track gain             : -9.89 dB
    Peak                   : 0.999573
    CRC32 hash (test run)  : 7201BE56
    CRC32 hash             : 7201BE56
    CRC32 hash (skip zero) : 3F05E33E
    AccurateRip signature  : AF1304D7
        ->Accurately ripped! (confidence 8)
          (matched with the different offset correction value;
           calculated using an additional offset of 646;
           the signature after correction is: F6F55B97)
    Statistics
        Read error                           : 0
        Jitter error (maybe fixed)           : 0
        Retry sector count                   : 0
        Damaged sector count                 : 0
Track 05
    Filename : /Users/Erin/Downloads/05 - Too Famous To Get Fully Dressed.flac
    Track gain             : -10.72 dB
    Peak                   : 0.999969
    CRC32 hash (test run)  : 33B435C8
    CRC32 hash             : 33B435C8
    CRC32 hash (skip zero) : E3C60FEA
    AccurateRip signature  : E34DD3C5
        ->Accurately ripped! (confidence 8)
          (matched with the different offset correction value;
           calculated using an additional offset of 646;
           the signature after correction is: 488E7127)
    Statistics
        Read error                           : 0
        Jitter error (maybe fixed)           : 0
        Retry sector count                   : 0
        Damaged sector count                 : 0
Track 06
    Filename : /Users/Erin/Downloads/06 - We're All Going Down.flac
    Track gain             : -9.83 dB
    Peak                   : 0.999969
    CRC32 hash (test run)  : 7163E2F4
    CRC32 hash             : 7163E2F4
    CRC32 hash (skip zero) : B8EEF880
    AccurateRip signature  : A3B89592
        ->Accurately ripped! (confidence 8)
          (matched with the different offset correction value;
           calculated using an additional offset of 646;
           the signature after correction is: 35D6F23A)
    Statistics
        Read error                           : 0
        Jitter error (maybe fixed)           : 0
        Retry sector count                   : 0
        Damaged sector count                 : 0
Track 07
    Filename : /Users/Erin/Downloads/07 - Dominoes.flac
    Pre-gap length : 00:01:58
    Track gain             : -6.60 dB
    Peak                   : 0.998993
    CRC32 hash (test run)  : C2FD60FA
    CRC32 hash             : C2FD60FA
    CRC32 hash (skip zero) : 0781B0CF
    AccurateRip signature  : 7D3603A2
        ->Accurately ripped! (confidence 8)
          (matched with the different offset correction value;
           calculated using an additional offset of 646;
           the signature after correction is: B44D4B18)
    Statistics
        Read error                           : 0
        Jitter error (maybe fixed)           : 0
        Retry sector count                   : 0
        Damaged sector count                 : 0
Track 08
    Filename : /Users/Erin/Downloads/08 - Paid To Get Excited.flac
    Pre-gap length : 00:01:60
    Track gain             : -10.21 dB
    Peak                   : 0.999115
    CRC32 hash (test run)  : 460B3F04
    CRC32 hash             : 460B3F04
    CRC32 hash (skip zero) : 0CCF1829
    AccurateRip signature  : 467DA218
        ->Accurately ripped! (confidence 8)
          (matched with the different offset correction value;
           calculated using an additional offset of 646;
           the signature after correction is: 1807511F)
    Statistics
        Read error                           : 0
        Jitter error (maybe fixed)           : 0
        Retry sector count                   : 0
        Damaged sector count                 : 0
Track 09
    Filename : /Users/Erin/Downloads/09 - Song Without A Chorus.flac
    Track gain             : -9.74 dB
    Peak                   : 0.999298
    CRC32 hash (test run)  : C1632937
    CRC32 hash             : C1632937
    CRC32 hash (skip zero) : 5BB70032
    AccurateRip signature  : 206E099F
        ->Accurately ripped! (confidence 8)
          (matched with the different offset correction value;
           calculated using an additional offset of 646;
           the signature after correction is: 37381EBA)
    Statistics
        Read error                           : 0
        Jitter error (maybe fixed)           : 0
        Retry sector count                   : 0
        Damaged sector count                 : 0
Track 10
    Filename : /Users/Erin/Downloads/10 - The Taste Of Red.flac
    Track gain             : -11.16 dB
    Peak                   : 0.998993
    CRC32 hash (test run)  : E3B3B066
    CRC32 hash             : E3B3B066
    CRC32 hash (skip zero) : AD9E32DB
    AccurateRip signature  : 64F3282A
        ->Accurately ripped! (confidence 8)
          (matched with the different offset correction value;
           calculated using an additional offset of 646;
           the signature after correction is: 1DF4AF5A)
    Statistics
        Read error                           : 0
        Jitter error (maybe fixed)           : 0
        Retry sector count                   : 0
        Damaged sector count                 : 0
Track 11
    Filename : /Users/Erin/Downloads/11 - Rich People Die Unhappy.flac
    Track gain             : -8.47 dB
    Peak                   : 0.998993
    CRC32 hash (test run)  : 256FEE17
    CRC32 hash             : 256FEE17
    CRC32 hash (skip zero) : 175C5EDB
    AccurateRip signature  : FEE10463
        ->Accurately ripped! (confidence 8)
          (matched with the different offset correction value;
           calculated using an additional offset of 646;
           the signature after correction is: F2D008C9)
    Statistics
        Read error                           : 0
        Jitter error (maybe fixed)           : 0
        Retry sector count                   : 0
        Damaged sector count                 : 0
Track 12
    Filename : /Users/Erin/Downloads/12 - This Is The Sweetest Little Song.flac
    Track gain             : -8.42 dB
    Peak                   : 0.998993
    CRC32 hash (test run)  : 4D4E7650
    CRC32 hash             : 4D4E7650
    CRC32 hash (skip zero) : 18C69D74
    AccurateRip signature  : C9472C7F
        ->Accurately ripped! (confidence 8)
          (matched with the different offset correction value;
           calculated using an additional offset of 646;
           the signature after correction is: 3AFFDA4F)
    Statistics
        Read error                           : 0
        Jitter error (maybe fixed)           : 0
        Retry sector count                   : 0
        Damaged sector count                 : 0
Track 13
    Filename : /Users/Erin/Downloads/13 - When Canyons Ruled The City.flac
    Track gain             : -10.13 dB
    Peak                   : 0.999054
    CRC32 hash (test run)  : 4776DECC
    CRC32 hash             : 4776DECC
    CRC32 hash (skip zero) : FD59729E
    AccurateRip signature  : 93299378
        ->Accurately ripped! (confidence 8)
          (matched with the different offset correction value;
           calculated using an additional offset of 646;
           the signature after correction is: CDEB2900)
    Statistics
        Read error                           : 0
        Jitter error (maybe fixed)           : 0
        Retry sector count                   : 0
        Damaged sector count                 : 0
No errors occurred
End of status report
AUDIOCHECKER v2.0 beta (build 457) - by Dester - opdester@freemail.hu
~~~~~~~~~~~~~~~~~~~~~~~~~~~~~~~~~~
-=== DO NOT EDIT THIS FILE! ===-
Path: ...\2006 - The Rise and Fall of Butch Walker and The Let's-Go-Out Tonites!
01 -=- 01 - Oooh.. Aaah....flac -=- CDDA (100%)
02 -=- 02 - Hot Girls in Good Moods.flac -=- CDDA (99%)
03 -=- 03 - Ladies and Gentlemen... 'The Let's-Go-Out-Tonites!'.flac -=- CDDA (99%)
04 -=- 04 - Bethamphetamine (Pretty Pretty).flac -=- CDDA (100%)
05 -=- 05 - Too Famous to Get Fully Dressed.flac -=- CDDA (100%)
06 -=- 06 - We're All Going Down.flac -=- CDDA (100%)
07 -=- 07 - Dominoes.flac -=- CDDA (100%)
08 -=- 08 - Paid to Get Excited.flac -=- CDDA (99%)
09 -=- 09 - Song Without a Chorus.flac -=- CDDA (99%)
10 -=- 10 - The Taste of Red.flac -=- CDDA (100%)
11 -=- 11 - Rich People Die Unhappy.flac -=- CDDA (100%)
12 -=- 12 - This Is the Sweetest Little Song.flac -=- CDDA (100%)
13 -=- 13 - When Canyons Ruled the City.flac -=- CDDA (100%)
Summary 99.69% CDDA
106246148
Код:
TITLE "The Rise And Fall of Butch Walker and The Let's-Go-Out-Tonites!"
PERFORMER "Butch Walker"
REM GENRE "Rock"
REM DATE "2006"
REM DISCNUMBER 1
REM TOTALDISCS 1
REM DISCID 940A2F0D
FILE "01 - Oooh.. Aaah....wav" WAVE
  TRACK 01 AUDIO
    TITLE "Oooh.. Aaah..."
    PERFORMER "Butch Walker"
    ISRC USSM10601506
    INDEX 01 00:00:00
FILE "02 - Hot Girls in Good Moods.wav" WAVE
  TRACK 02 AUDIO
    TITLE "Hot Girls in Good Moods"
    PERFORMER "Butch Walker"
    ISRC USSM10601507
    INDEX 01 00:00:00
FILE "03 - Ladies and Gentlemen... 'The Let's-Go-Out-Tonites!'.wav" WAVE
  TRACK 03 AUDIO
    TITLE "Ladies and Gentlemen... 'The Let's-Go-Out-Tonites!'"
    PERFORMER "Butch Walker"
    ISRC USSM10601508
    INDEX 01 00:00:00
FILE "04 - Bethamphetamine (Pretty Pretty).wav" WAVE
  TRACK 04 AUDIO
    TITLE "Bethamphetamine (Pretty Pretty)"
    PERFORMER "Butch Walker"
    ISRC USSM10601509
    INDEX 01 00:00:00
FILE "05 - Too Famous to Get Fully Dressed.wav" WAVE
  TRACK 05 AUDIO
    TITLE "Too Famous to Get Fully Dressed"
    PERFORMER "Butch Walker"
    ISRC USSM10601510
    INDEX 01 00:00:00
FILE "06 - We're All Going Down.wav" WAVE
  TRACK 06 AUDIO
    TITLE "We're All Going Down"
    PERFORMER "Butch Walker"
    ISRC USSM10601511
    INDEX 01 00:00:00
  TRACK 07 AUDIO
    TITLE "Dominoes"
    PERFORMER "Butch Walker"
    ISRC USSM10601512
    INDEX 00 04:14:24
FILE "07 - Dominoes.wav" WAVE
    INDEX 01 00:00:00
  TRACK 08 AUDIO
    TITLE "Paid to Get Excited"
    PERFORMER "Butch Walker"
    ISRC USSM10601513
    INDEX 00 03:55:68
FILE "08 - Paid to Get Excited.wav" WAVE
    INDEX 01 00:00:00
FILE "09 - Song Without a Chorus.wav" WAVE
  TRACK 09 AUDIO
    TITLE "Song Without a Chorus"
    PERFORMER "Butch Walker"
    ISRC USSM10601514
    INDEX 01 00:00:00
FILE "10 - The Taste of Red.wav" WAVE
  TRACK 10 AUDIO
    TITLE "The Taste of Red"
    PERFORMER "Butch Walker"
    ISRC USSM10601515
    INDEX 01 00:00:00
FILE "11 - Rich People Die Unhappy.wav" WAVE
  TRACK 11 AUDIO
    TITLE "Rich People Die Unhappy"
    PERFORMER "Butch Walker"
    ISRC USSM10601516
    INDEX 01 00:00:00
FILE "12 - This Is the Sweetest Little Song.wav" WAVE
  TRACK 12 AUDIO
    TITLE "This Is the Sweetest Little Song"
    PERFORMER "Butch Walker"
    ISRC USSM10601517
    INDEX 01 00:00:00
FILE "13 - When Canyons Ruled the City.wav" WAVE
  TRACK 13 AUDIO
    TITLE "When Canyons Ruled the City"
    PERFORMER "Butch Walker"
    ISRC USSM10601518
    INDEX 01 00:00:00
#777Лейбл: Original Signal Recordings
Продолжительность: 1:00:04
Сканы: нет
Источник: waffles.fm (alevevia)
Трэклист:
01 - The Weight of Her
02 - Going Back/Going Home
03 - Here Comes the...
04 - Ponce de Leon Ave.
05 - Ships in a Bottle
06 - Vessels
07 - Passed Your Place, Saw Your Car, Thought of You
08 - The 3 Kids in Brooklyn
09 - Summer Scarves
10 - A Song for the Metalheads
11 - Closer to the Truth and Further from the Sky
12 - ATL
13 - Untitled
Доп. информация:
Код:
X Lossless Decoder version 20101212 (126.2)
XLD extraction logfile from 2011-01-29 11:11:31 -0500
Butch Walker / Sycamore Meadows
Used drive : MATSHITA DVD-R   UJ-868 (revision KB19)
Ripper mode             : XLD Secure Ripper
Disable audio cache     : OK for the drive with a cache less than 1375KiB
Make use of C2 pointers : NO
Read offset correction  : 102
Max retry count         : 100
Gap status              : Analyzed, Appended (except HTOA)
TOC of the extracted CD
     Track |   Start  |  Length  | Start sector | End sector
    ---------------------------------------------------------
        1  | 00:00:00 | 03:42:70 |         0    |    16719
        2  | 03:42:70 | 04:01:44 |     16720    |    34838
        3  | 07:44:39 | 04:09:64 |     34839    |    53577
        4  | 11:54:28 | 04:26:07 |     53578    |    73534
        5  | 16:20:35 | 04:07:34 |     73535    |    92093
        6  | 20:27:69 | 04:12:40 |     92094    |   111033
        7  | 24:40:34 | 05:40:22 |    111034    |   136555
        8  | 30:20:56 | 04:33:25 |    136556    |   157055
        9  | 34:54:06 | 04:24:55 |    157056    |   176910
       10  | 39:18:61 | 02:57:18 |    176911    |   190203
       11  | 42:16:04 | 04:37:01 |    190204    |   210979
       12  | 46:53:05 | 05:27:50 |    210980    |   235554
       13  | 52:20:55 | 07:44:11 |    235555    |   270365
AccurateRip Summary
    Track 01 : OK (confidence 3)
    Track 02 : OK (confidence 3)
    Track 03 : OK (confidence 3)
    Track 04 : OK (confidence 3)
    Track 05 : OK (confidence 3)
    Track 06 : OK (confidence 3)
    Track 07 : OK (confidence 3)
    Track 08 : OK (confidence 3)
    Track 09 : OK (confidence 3)
    Track 10 : OK (confidence 3)
    Track 11 : OK (confidence 3)
    Track 12 : OK (confidence 3)
    Track 13 : OK (confidence 1)
        ->All tracks accurately ripped.
All Tracks
    Album gain             : -8.88 dB
    Peak                   : 0.977356
    Statistics
        Read error                           : 0
        Jitter error (maybe fixed)           : 0
        Retry sector count                   : 0
        Damaged sector count                 : 0
Track 01
    Filename : /Users/Erin/Downloads/01 - The Weight Of Her.flac
    Pre-gap length : 00:02:00
    Track gain             : -8.94 dB
    Peak                   : 0.944214
    CRC32 hash (test run)  : 4B1A0806
    CRC32 hash             : 4B1A0806
    CRC32 hash (skip zero) : B6565079
    AccurateRip signature  : 4AB93290
        ->Accurately ripped! (confidence 3)
    Statistics
        Read error                           : 0
        Jitter error (maybe fixed)           : 0
        Retry sector count                   : 0
        Damaged sector count                 : 0
Track 02
    Filename : /Users/Erin/Downloads/02 - Going Back/Going Home.flac
    Track gain             : -8.05 dB
    Peak                   : 0.955139
    CRC32 hash (test run)  : 0A579835
    CRC32 hash             : 0A579835
    CRC32 hash (skip zero) : 3B1EFB4B
    AccurateRip signature  : 6CA3CFDB
        ->Accurately ripped! (confidence 3)
    Statistics
        Read error                           : 0
        Jitter error (maybe fixed)           : 0
        Retry sector count                   : 0
        Damaged sector count                 : 0
Track 03
    Filename : /Users/Erin/Downloads/03 - Here Comes The....flac
    Track gain             : -9.14 dB
    Peak                   : 0.955139
    CRC32 hash (test run)  : 198D7B9F
    CRC32 hash             : 198D7B9F
    CRC32 hash (skip zero) : F9D52A5A
    AccurateRip signature  : 98287872
        ->Accurately ripped! (confidence 3)
    Statistics
        Read error                           : 0
        Jitter error (maybe fixed)           : 0
        Retry sector count                   : 0
        Damaged sector count                 : 0
Track 04
    Filename : /Users/Erin/Downloads/04 - Ponce De Leon Ave..flac
    Track gain             : -9.00 dB
    Peak                   : 0.955139
    CRC32 hash (test run)  : C7E67079
    CRC32 hash             : C7E67079
    CRC32 hash (skip zero) : FE507929
    AccurateRip signature  : 300C37B2
        ->Accurately ripped! (confidence 3)
    Statistics
        Read error                           : 0
        Jitter error (maybe fixed)           : 0
        Retry sector count                   : 0
        Damaged sector count                 : 0
Track 05
    Filename : /Users/Erin/Downloads/05 - Ships In A Bottle.flac
    Track gain             : -8.37 dB
    Peak                   : 0.977356
    CRC32 hash (test run)  : F4783B40
    CRC32 hash             : F4783B40
    CRC32 hash (skip zero) : A22AF2BF
    AccurateRip signature  : 5451C390
        ->Accurately ripped! (confidence 3)
    Statistics
        Read error                           : 0
        Jitter error (maybe fixed)           : 0
        Retry sector count                   : 0
        Damaged sector count                 : 0
Track 06
    Filename : /Users/Erin/Downloads/06 - Vessels.flac
    Track gain             : -9.56 dB
    Peak                   : 0.955139
    CRC32 hash (test run)  : E8521E7A
    CRC32 hash             : E8521E7A
    CRC32 hash (skip zero) : EDD5078B
    AccurateRip signature  : C29F422A
        ->Accurately ripped! (confidence 3)
    Statistics
        Read error                           : 0
        Jitter error (maybe fixed)           : 0
        Retry sector count                   : 0
        Damaged sector count                 : 0
Track 07
    Filename : /Users/Erin/Downloads/07 - Passed Your Place, Saw Your Car, Thought Of You.flac
    Track gain             : -6.60 dB
    Peak                   : 0.955078
    CRC32 hash (test run)  : 26DEEE02
    CRC32 hash             : 26DEEE02
    CRC32 hash (skip zero) : C9A21DCA
    AccurateRip signature  : A18CB3BF
        ->Accurately ripped! (confidence 3)
    Statistics
        Read error                           : 0
        Jitter error (maybe fixed)           : 0
        Retry sector count                   : 0
        Damaged sector count                 : 0
Track 08
    Filename : /Users/Erin/Downloads/08 - The 3 Kids In Brooklyn.flac
    Track gain             : -8.84 dB
    Peak                   : 0.955139
    CRC32 hash (test run)  : 02C050D1
    CRC32 hash             : 02C050D1
    CRC32 hash (skip zero) : C5D9760A
    AccurateRip signature  : D278E76E
        ->Accurately ripped! (confidence 3)
    Statistics
        Read error                           : 0
        Jitter error (maybe fixed)           : 0
        Retry sector count                   : 0
        Damaged sector count                 : 0
Track 09
    Filename : /Users/Erin/Downloads/09 - Summer Scarves.flac
    Track gain             : -9.13 dB
    Peak                   : 0.955139
    CRC32 hash (test run)  : DB8271CF
    CRC32 hash             : DB8271CF
    CRC32 hash (skip zero) : 2A566E55
    AccurateRip signature  : 35C815E4
        ->Accurately ripped! (confidence 3)
    Statistics
        Read error                           : 0
        Jitter error (maybe fixed)           : 0
        Retry sector count                   : 0
        Damaged sector count                 : 0
Track 10
    Filename : /Users/Erin/Downloads/10 - A Song For The Metalheads.flac
    Track gain             : -6.94 dB
    Peak                   : 0.850922
    CRC32 hash (test run)  : CD645FF9
    CRC32 hash             : CD645FF9
    CRC32 hash (skip zero) : 564559CF
    AccurateRip signature  : A6D9F48F
        ->Accurately ripped! (confidence 3)
    Statistics
        Read error                           : 0
        Jitter error (maybe fixed)           : 0
        Retry sector count                   : 0
        Damaged sector count                 : 0
Track 11
    Filename : /Users/Erin/Downloads/11 - Closer To The Truth And Further From The Sky.flac
    Pre-gap length : 00:15:32
    Track gain             : -9.49 dB
    Peak                   : 0.955139
    CRC32 hash (test run)  : 75C5FC16
    CRC32 hash             : 75C5FC16
    CRC32 hash (skip zero) : 8F700B35
    AccurateRip signature  : 1D7E6FC2
        ->Accurately ripped! (confidence 3)
    Statistics
        Read error                           : 0
        Jitter error (maybe fixed)           : 0
        Retry sector count                   : 0
        Damaged sector count                 : 0
Track 12
    Filename : /Users/Erin/Downloads/12 - ATL.flac
    Pre-gap length : 00:14:64
    Track gain             : -5.72 dB
    Peak                   : 0.955139
    CRC32 hash (test run)  : 4FFB50A2
    CRC32 hash             : 4FFB50A2
    CRC32 hash (skip zero) : AD104E99
    AccurateRip signature  : 68B35522
        ->Accurately ripped! (confidence 3)
    Statistics
        Read error                           : 0
        Jitter error (maybe fixed)           : 0
        Retry sector count                   : 0
        Damaged sector count                 : 0
Track 13
    Filename : /Users/Erin/Downloads/13 - Untitled.flac
    Track gain             : -3.41 dB
    Peak                   : 0.955109
    CRC32 hash (test run)  : 8D7C38AD
    CRC32 hash             : 8D7C38AD
    CRC32 hash (skip zero) : A8E5E487
    AccurateRip signature  : C2421EBD
        ->Accurately ripped! (confidence 1)
    Statistics
        Read error                           : 0
        Jitter error (maybe fixed)           : 0
        Retry sector count                   : 0
        Damaged sector count                 : 0
No errors occurred
End of status report
AUDIOCHECKER v2.0 beta (build 457) - by Dester - opdester@freemail.hu
~~~~~~~~~~~~~~~~~~~~~~~~~~~~~~~~~~
-=== DO NOT EDIT THIS FILE! ===-
Path: ...\2008 - Sycamore Meadows
01 -=- 01 - The Weight of Her.flac -=- CDDA (100%)
02 -=- 02 - Going Back - Going Home.flac -=- CDDA (100%)
03 -=- 03 - Here Comes The....flac -=- CDDA (100%)
04 -=- 04 - Ponce De Leon Ave..flac -=- CDDA (99%)
05 -=- 05 - Ships in a Bottle.flac -=- CDDA (100%)
06 -=- 06 - Vessels.flac -=- CDDA (100%)
07 -=- 07 - Passed Your Place, Saw Your Car, Thought of You.flac -=- CDDA (100%)
08 -=- 08 - The 3 Kids in Brooklyn.flac -=- CDDA (100%)
09 -=- 09 - Summer Scarves.flac -=- CDDA (100%)
10 -=- 10 - A Song for the Metalheads.flac -=- CDDA (100%)
11 -=- 11 - Closer to the Truth and Further From the Sky.flac -=- CDDA (100%)
12 -=- 12 - ATL.flac -=- CDDA (100%)
13 -=- 13 - Untitled.flac -=- CDDA (100%)
Summary 99.92% CDDA
37522564
Код:
TITLE "Sycamore Meadows"
PERFORMER "Butch Walker"
REM GENRE "Rock"
REM DATE 2008
REM DISCNUMBER 1
REM TOTALDISCS 1
REM DISCID AD0E140D
FILE "01 - The Weight of Her.wav" WAVE
  TRACK 01 AUDIO
    TITLE "The Weight of Her"
    PERFORMER "Butch Walker"
    INDEX 01 00:00:00
FILE "02 - Going Back - Going Home.wav" WAVE
  TRACK 02 AUDIO
    TITLE "Going Back/Going Home"
    PERFORMER "Butch Walker"
    ISRC USS1Z0800022
    INDEX 01 00:00:00
FILE "03 - Here Comes The....wav" WAVE
  TRACK 03 AUDIO
    TITLE "Here Comes The..."
    PERFORMER "Butch Walker"
    ISRC USS1Z0800023
    INDEX 01 00:00:00
FILE "04 - Ponce De Leon Ave..wav" WAVE
  TRACK 04 AUDIO
    TITLE "Ponce De Leon Ave."
    PERFORMER "Butch Walker"
    ISRC USS1Z0800024
    INDEX 01 00:00:00
FILE "05 - Ships in a Bottle.wav" WAVE
  TRACK 05 AUDIO
    TITLE "Ships in a Bottle"
    PERFORMER "Butch Walker"
    ISRC USS1Z0800025
    INDEX 01 00:00:00
FILE "06 - Vessels.wav" WAVE
  TRACK 06 AUDIO
    TITLE "Vessels"
    PERFORMER "Butch Walker"
    ISRC USS1Z0800026
    INDEX 01 00:00:00
FILE "07 - Passed Your Place, Saw Your Car, Thought of You.wav" WAVE
  TRACK 07 AUDIO
    TITLE "Passed Your Place, Saw Your Car, Thought of You"
    PERFORMER "Butch Walker"
    ISRC USS1Z0800027
    INDEX 01 00:00:00
FILE "08 - The 3 Kids in Brooklyn.wav" WAVE
  TRACK 08 AUDIO
    TITLE "The 3 Kids in Brooklyn"
    PERFORMER "Butch Walker"
    ISRC USS1Z0800028
    INDEX 01 00:00:00
FILE "09 - Summer Scarves.wav" WAVE
  TRACK 09 AUDIO
    TITLE "Summer Scarves"
    PERFORMER "Butch Walker"
    ISRC USS1Z0800029
    INDEX 01 00:00:00
FILE "10 - A Song for the Metalheads.wav" WAVE
  TRACK 10 AUDIO
    TITLE "A Song for the Metalheads"
    PERFORMER "Butch Walker"
    ISRC USS1Z0800030
    INDEX 01 00:00:00
  TRACK 11 AUDIO
    TITLE "Closer to the Truth and Further From the Sky"
    PERFORMER "Butch Walker"
    ISRC USS1Z0800031
    INDEX 00 02:41:61
FILE "11 - Closer to the Truth and Further From the Sky.wav" WAVE
    INDEX 01 00:00:00
  TRACK 12 AUDIO
    TITLE "ATL"
    PERFORMER "Butch Walker"
    ISRC USS1Z0800032
    INDEX 00 04:22:12
FILE "12 - ATL.wav" WAVE
    INDEX 01 00:00:00
FILE "13 - Untitled.wav" WAVE
  TRACK 13 AUDIO
    TITLE "Untitled"
    PERFORMER "Butch Walker"
    INDEX 01 00:00:00
#777Лейбл: One Haven Music
Продолжительность: 40:08
Сканы: нет
Источник: waffles.fm (alevevia)
Трэклист:
01 - Trash Day
02 - Pretty Melody
03 - Don't You Think Someone Should Take You Home
04 - Stripped Down Version
05 - Canadian Ten
06 - Temporary Title
07 - She Likes Hair Bands
08 - House of Cards
09 - They Don't Know What We Know
10 - Days/Months/Years
11 - Be Good Until Then
Доп. информация:
Код:
X Lossless Decoder version 20101212 (126.2)
XLD extraction logfile from 2011-02-06 10:14:27 -0500
Butch Walker / I Liked It Better When You Had No Heart
Used drive : MATSHITA DVD-R   UJ-868 (revision KB19)
Ripper mode             : XLD Secure Ripper
Disable audio cache     : OK for the drive with a cache less than 1375KiB
Make use of C2 pointers : NO
Read offset correction  : 102
Max retry count         : 100
Gap status              : Analyzed, Appended (except HTOA)
TOC of the extracted CD
     Track |   Start  |  Length  | Start sector | End sector
    ---------------------------------------------------------
        1  | 00:00:00 | 03:06:35 |         0    |    13984
        2  | 03:06:35 | 04:21:63 |     13985    |    33622
        3  | 07:28:23 | 04:37:15 |     33623    |    54412
        4  | 12:05:38 | 03:31:44 |     54413    |    70281
        5  | 15:37:07 | 04:27:12 |     70282    |    90318
        6  | 20:04:19 | 03:12:33 |     90319    |   104751
        7  | 23:16:52 | 02:57:43 |    104752    |   118069
        8  | 26:14:20 | 02:29:46 |    118070    |   129290
        9  | 28:43:66 | 03:44:57 |    129291    |   146147
       10  | 32:28:48 | 03:33:64 |    146148    |   162186
       11  | 36:02:37 | 04:06:01 |    162187    |   180637
AccurateRip Summary
    Track 01 : OK (confidence 5)
    Track 02 : OK (confidence 5)
    Track 03 : OK (confidence 5)
    Track 04 : OK (confidence 5)
    Track 05 : OK (confidence 5)
    Track 06 : OK (confidence 5)
    Track 07 : OK (confidence 5)
    Track 08 : OK (confidence 5)
    Track 09 : OK (confidence 5)
    Track 10 : OK (confidence 5)
    Track 11 : OK (confidence 5)
        ->All tracks accurately ripped.
All Tracks
    Album gain             : -9.25 dB
    Peak                   : 1.000000
    Statistics
        Read error                           : 0
        Jitter error (maybe fixed)           : 0
        Retry sector count                   : 0
        Damaged sector count                 : 0
Track 01
    Filename : /Users/Erin/Downloads/01 - Trash Day.flac
    Pre-gap length : 00:02:00
    Track gain             : -9.66 dB
    Peak                   : 0.999115
    CRC32 hash (test run)  : B8EEC149
    CRC32 hash             : B8EEC149
    CRC32 hash (skip zero) : 9D5D880A
    AccurateRip signature  : 101BF14C
        ->Accurately ripped! (confidence 5)
    Statistics
        Read error                           : 0
        Jitter error (maybe fixed)           : 0
        Retry sector count                   : 0
        Damaged sector count                 : 0
Track 02
    Filename : /Users/Erin/Downloads/02 - Pretty Melody.flac
    Track gain             : -9.10 dB
    Peak                   : 0.999115
    CRC32 hash (test run)  : 094061B7
    CRC32 hash             : 094061B7
    CRC32 hash (skip zero) : D9F5BAEB
    AccurateRip signature  : AFB88D8E
        ->Accurately ripped! (confidence 5)
    Statistics
        Read error                           : 0
        Jitter error (maybe fixed)           : 0
        Retry sector count                   : 0
        Damaged sector count                 : 0
Track 03
    Filename : /Users/Erin/Downloads/03 - Don't You Think Someone Should Take You Home.flac
    Track gain             : -4.90 dB
    Peak                   : 0.999115
    CRC32 hash (test run)  : 10A1FFE1
    CRC32 hash             : 10A1FFE1
    CRC32 hash (skip zero) : 4A3F36A0
    AccurateRip signature  : 6DF877C6
        ->Accurately ripped! (confidence 5)
    Statistics
        Read error                           : 0
        Jitter error (maybe fixed)           : 0
        Retry sector count                   : 0
        Damaged sector count                 : 0
Track 04
    Filename : /Users/Erin/Downloads/04 - Stripped Down Version.flac
    Track gain             : -9.15 dB
    Peak                   : 0.999115
    CRC32 hash (test run)  : 7E2E98F1
    CRC32 hash             : 7E2E98F1
    CRC32 hash (skip zero) : 94BAB92C
    AccurateRip signature  : 51FAE679
        ->Accurately ripped! (confidence 5)
    Statistics
        Read error                           : 0
        Jitter error (maybe fixed)           : 0
        Retry sector count                   : 0
        Damaged sector count                 : 0
Track 05
    Filename : /Users/Erin/Downloads/05 - Canadian Ten.flac
    Track gain             : -8.24 dB
    Peak                   : 0.999115
    CRC32 hash (test run)  : 033F0955
    CRC32 hash             : 033F0955
    CRC32 hash (skip zero) : C0E99226
    AccurateRip signature  : B2669198
        ->Accurately ripped! (confidence 5)
    Statistics
        Read error                           : 0
        Jitter error (maybe fixed)           : 0
        Retry sector count                   : 0
        Damaged sector count                 : 0
Track 06
    Filename : /Users/Erin/Downloads/06 - Temporary Title.flac
    Track gain             : -10.09 dB
    Peak                   : 0.999115
    CRC32 hash (test run)  : 20F4E388
    CRC32 hash             : 20F4E388
    CRC32 hash (skip zero) : 0B798F04
    AccurateRip signature  : 0964974C
        ->Accurately ripped! (confidence 5)
    Statistics
        Read error                           : 0
        Jitter error (maybe fixed)           : 0
        Retry sector count                   : 0
        Damaged sector count                 : 0
Track 07
    Filename : /Users/Erin/Downloads/07 - She Likes Hair Bands.flac
    Track gain             : -9.97 dB
    Peak                   : 0.999115
    CRC32 hash (test run)  : C83B6F74
    CRC32 hash             : C83B6F74
    CRC32 hash (skip zero) : 2303EC3C
    AccurateRip signature  : 0FA8C236
        ->Accurately ripped! (confidence 5)
    Statistics
        Read error                           : 0
        Jitter error (maybe fixed)           : 0
        Retry sector count                   : 0
        Damaged sector count                 : 0
Track 08
    Filename : /Users/Erin/Downloads/08 - House Of Cards.flac
    Track gain             : -9.85 dB
    Peak                   : 1.000000
    CRC32 hash (test run)  : 0C6B2B71
    CRC32 hash             : 0C6B2B71
    CRC32 hash (skip zero) : 17A308D9
    AccurateRip signature  : 3E2C3957
        ->Accurately ripped! (confidence 5)
    Statistics
        Read error                           : 0
        Jitter error (maybe fixed)           : 0
        Retry sector count                   : 0
        Damaged sector count                 : 0
Track 09
    Filename : /Users/Erin/Downloads/09 - They Don't Know What We Know.flac
    Track gain             : -8.05 dB
    Peak                   : 0.999115
    CRC32 hash (test run)  : 05F09462
    CRC32 hash             : 05F09462
    CRC32 hash (skip zero) : BB2C81C5
    AccurateRip signature  : 908475F2
        ->Accurately ripped! (confidence 5)
    Statistics
        Read error                           : 0
        Jitter error (maybe fixed)           : 0
        Retry sector count                   : 0
        Damaged sector count                 : 0
Track 10
    Filename : /Users/Erin/Downloads/10 - Days/Months/Years.flac
    Track gain             : -9.21 dB
    Peak                   : 0.999847
    CRC32 hash (test run)  : B5203F08
    CRC32 hash             : B5203F08
    CRC32 hash (skip zero) : 9E4BEBEE
    AccurateRip signature  : CDB997F9
        ->Accurately ripped! (confidence 5)
    Statistics
        Read error                           : 0
        Jitter error (maybe fixed)           : 0
        Retry sector count                   : 0
        Damaged sector count                 : 0
Track 11
    Filename : /Users/Erin/Downloads/11 - Be Good Until Then.flac
    Track gain             : -3.29 dB
    Peak                   : 0.913727
    CRC32 hash (test run)  : 53BEFA48
    CRC32 hash             : 53BEFA48
    CRC32 hash (skip zero) : 6DD39F60
    AccurateRip signature  : 6F573186
        ->Accurately ripped! (confidence 5)
    Statistics
        Read error                           : 0
        Jitter error (maybe fixed)           : 0
        Retry sector count                   : 0
        Damaged sector count                 : 0
No errors occurred
End of status report
AUDIOCHECKER v2.0 beta (build 457) - by Dester - opdester@freemail.hu
~~~~~~~~~~~~~~~~~~~~~~~~~~~~~~~~~~
-=== DO NOT EDIT THIS FILE! ===-
Path: ...\2010 - I Liked It Better When You Had No Heart
01 -=- 01 - Trash Day.flac -=- CDDA (100%)
02 -=- 02 - Pretty Melody.flac -=- CDDA (100%)
03 -=- 03 - Don't You Think Someone Should Take You Home.flac -=- CDDA (100%)
04 -=- 04 - Stripped Down Version.flac -=- CDDA (100%)
05 -=- 05 - Canadian Ten.flac -=- CDDA (100%)
06 -=- 06 - Temporary Title.flac -=- CDDA (99%)
07 -=- 07 - She Likes Hair Bands.flac -=- CDDA (100%)
08 -=- 08 - House of Cards.flac -=- CDDA (100%)
09 -=- 09 - They Don't Know What We Know.flac -=- CDDA (100%)
10 -=- 10 - Days-Months-Years.flac -=- CDDA (99%)
11 -=- 11 - Be Good Until Then.flac -=- CDDA (100%)
Summary 99.82% CDDA
184859348
Код:
TITLE "I Liked It Better When You Had No Heart"
PERFORMER "Butch Walker"
REM GENRE "Rock"
REM DATE "2010"
REM DISCNUMBER 1
REM TOTALDISCS 1
REM DISCID 9D09680B
FILE "01 - Trash Day.wav" WAVE
  TRACK 01 AUDIO
    TITLE "Trash Day"
    PERFORMER "Butch Walker"
    ISRC US8BD0900001
    FLAGS DCP
    INDEX 01 00:00:00
FILE "02 - Pretty Melody.wav" WAVE
  TRACK 02 AUDIO
    TITLE "Pretty Melody"
    PERFORMER "Butch Walker"
    ISRC US8BD0900002
    FLAGS DCP
    INDEX 01 00:00:00
FILE "03 - Don't You Think Someone Should Take You Home.wav" WAVE
  TRACK 03 AUDIO
    TITLE "Don't You Think Someone Should Take You Home"
    PERFORMER "Butch Walker"
    ISRC US8BD0900003
    FLAGS DCP
    INDEX 01 00:00:00
FILE "04 - Stripped Down Version.wav" WAVE
  TRACK 04 AUDIO
    TITLE "Stripped Down Version"
    PERFORMER "Butch Walker"
    ISRC US8BD0900004
    FLAGS DCP
    INDEX 01 00:00:00
FILE "05 - Canadian Ten.wav" WAVE
  TRACK 05 AUDIO
    TITLE "Canadian Ten"
    PERFORMER "Butch Walker"
    ISRC US8BD0900005
    FLAGS DCP
    INDEX 01 00:00:00
FILE "06 - Temporary Title.wav" WAVE
  TRACK 06 AUDIO
    TITLE "Temporary Title"
    PERFORMER "Butch Walker"
    ISRC US8BD0900006
    FLAGS DCP
    INDEX 01 00:00:00
FILE "07 - She Likes Hair Bands.wav" WAVE
  TRACK 07 AUDIO
    TITLE "She Likes Hair Bands"
    PERFORMER "Butch Walker"
    ISRC US8BD0900007
    FLAGS DCP
    INDEX 01 00:00:00
FILE "08 - House of Cards.wav" WAVE
  TRACK 08 AUDIO
    TITLE "House of Cards"
    PERFORMER "Butch Walker"
    ISRC US8BD0900008
    FLAGS DCP
    INDEX 01 00:00:00
FILE "09 - They Don't Know What We Know.wav" WAVE
  TRACK 09 AUDIO
    TITLE "They Don't Know What We Know"
    PERFORMER "Butch Walker"
    ISRC US8BD0900009
    FLAGS DCP
    INDEX 01 00:00:00
FILE "10 - Days-Months-Years.wav" WAVE
  TRACK 10 AUDIO
    TITLE "Days/Months/Years"
    PERFORMER "Butch Walker"
    ISRC US8BD0900010
    FLAGS DCP
    INDEX 01 00:00:00
FILE "11 - Be Good Until Then.wav" WAVE
  TRACK 11 AUDIO
    TITLE "Be Good Until Then"
    PERFORMER "Butch Walker"
    ISRC US8BD0900011
    FLAGS DCP
    INDEX 01 00:00:00
#777Лейбл: Dangerbird
Продолжительность: 36:14
Сканы: нет
Источник: what.cd (denalla1)
Трэклист:
01 - Bodegas and Blood
02 - Every Single Body Else
03 - Summer of '89
04 - Sweethearts
05 - Day Drunk
06 - Synthesizers
07 - Dublin Crow
08 - Closest Thing to You I'm Gonna Find
09 - Bullet Belt
10 - Suckerpunch
Доп. информация:
Код:
Exact Audio Copy V1.0 beta 2 from 29. April 2011
EAC extraction logfile from 19. October 2011, 14:15
Butch Walker & The Black Widows / Spade
Used drive  : PLDS    DVD+-RW DS-8A5SH   Adapter: 0  ID: 1
Read mode               : Secure
Utilize accurate stream : Yes
Defeat audio cache      : Yes
Make use of C2 pointers : No
Read offset correction                      : 6
Overread into Lead-In and Lead-Out          : No
Fill up missing offset samples with silence : Yes
Delete leading and trailing silent blocks   : No
Null samples used in CRC calculations       : Yes
Used interface                              : Native Win32 interface for Win NT & 2000
Gap handling                                : Appended to previous track
Used output format              : User Defined Encoder
Selected bitrate                : 1024 kBit/s
Quality                         : High
Add ID3 tag                     : No
Command line compressor         : C:\Program Files (x86)\Exact Audio Copy\Flac\flac.exe
Additional command line options : -8 -V -T "ARTIST=%artist%" -T "TITLE=%title%" -T "ALBUM=%albumtitle%" -T "DATE=%year%" -T "TRACKNUMBER=%tracknr%" -T "GENRE=%genre%" -T "PERFORMER=%albuminterpret%" -T "COMPOSER=%composer%" %haslyrics%--tag-from-file=LYRICS
TOC of the extracted CD
     Track |   Start  |  Length  | Start sector | End sector
    ---------------------------------------------------------
        1  |  0:00.00 |  3:52.61 |         0    |    17460
        2  |  3:52.61 |  3:00.28 |     17461    |    30988
        3  |  6:53.14 |  4:14.70 |     30989    |    50108
        4  | 11:08.09 |  3:02.56 |     50109    |    63814
        5  | 14:10.65 |  3:54.41 |     63815    |    81405
        6  | 18:05.31 |  3:25.02 |     81406    |    96782
        7  | 21:30.33 |  2:49.46 |     96783    |   109503
        8  | 24:20.04 |  3:56.00 |    109504    |   127203
        9  | 28:16.04 |  4:04.30 |    127204    |   145533
       10  | 32:20.34 |  3:53.52 |    145534    |   163060
Track  1
     Filename C:\Users\Dean Laptop\Desktop\FLAC\Butch Walker - Spade\01 Bodegas and Blood.wav
     Pre-gap length  0:00:02.00
     Peak level 100.0 %
     Extraction speed 1.2 X
     Track quality 100.0 %
     Test CRC D60EC99F
     Copy CRC D60EC99F
     Track not present in AccurateRip database
     Copy OK
Track  2
     Filename C:\Users\Dean Laptop\Desktop\FLAC\Butch Walker - Spade\02 Every Single Body Else.wav
     Peak level 94.4 %
     Extraction speed 1.2 X
     Track quality 100.0 %
     Test CRC 1A0217B2
     Copy CRC 1A0217B2
     Track not present in AccurateRip database
     Copy OK
Track  3
     Filename C:\Users\Dean Laptop\Desktop\FLAC\Butch Walker - Spade\03 Summer of '89.wav
     Peak level 99.1 %
     Extraction speed 1.2 X
     Track quality 99.9 %
     Test CRC A44B7CB7
     Copy CRC A44B7CB7
     Track not present in AccurateRip database
     Copy OK
Track  4
     Filename C:\Users\Dean Laptop\Desktop\FLAC\Butch Walker - Spade\04 Sweethearts.wav
     Peak level 100.0 %
     Extraction speed 1.4 X
     Track quality 100.0 %
     Test CRC FF666357
     Copy CRC FF666357
     Track not present in AccurateRip database
     Copy OK
Track  5
     Filename C:\Users\Dean Laptop\Desktop\FLAC\Butch Walker - Spade\05 Day Drunk.wav
     Peak level 94.1 %
     Extraction speed 1.6 X
     Track quality 100.0 %
     Test CRC 3813756E
     Copy CRC 3813756E
     Track not present in AccurateRip database
     Copy OK
Track  6
     Filename C:\Users\Dean Laptop\Desktop\FLAC\Butch Walker - Spade\06 Synthesizers.wav
     Pre-gap length  0:00:03.38
     Peak level 95.9 %
     Extraction speed 1.6 X
     Track quality 100.0 %
     Test CRC 5982568C
     Copy CRC 5982568C
     Track not present in AccurateRip database
     Copy OK
Track  7
     Filename C:\Users\Dean Laptop\Desktop\FLAC\Butch Walker - Spade\07 Dublin Crow.wav
     Peak level 94.9 %
     Extraction speed 1.4 X
     Track quality 99.9 %
     Test CRC D6C7DF96
     Copy CRC D6C7DF96
     Track not present in AccurateRip database
     Copy OK
Track  8
     Filename C:\Users\Dean Laptop\Desktop\FLAC\Butch Walker - Spade\08 Closest Thing to You I'm Gonna Find.wav
     Pre-gap length  0:00:00.88
     Peak level 95.2 %
     Extraction speed 1.8 X
     Track quality 100.0 %
     Test CRC 46BC355A
     Copy CRC 46BC355A
     Track not present in AccurateRip database
     Copy OK
Track  9
     Filename C:\Users\Dean Laptop\Desktop\FLAC\Butch Walker - Spade\09 Bullt belt.wav
     Peak level 93.0 %
     Extraction speed 1.9 X
     Track quality 100.0 %
     Test CRC 3EB2B283
     Copy CRC 3EB2B283
     Track not present in AccurateRip database
     Copy OK
Track 10
     Filename C:\Users\Dean Laptop\Desktop\FLAC\Butch Walker - Spade\10 Suckerpunch.wav
     Peak level 99.1 %
     Extraction speed 1.7 X
     Track quality 99.9 %
     Test CRC 8C322F95
     Copy CRC 8C322F95
     Track not present in AccurateRip database
     Copy OK
None of the tracks are present in the AccurateRip database
No errors occurred
End of status report
==== Log checksum 84B5F6FCA33C40C74B153135BE4E5007DD8AEBEE79E8216ADF83BBAFCC5732B8 ====
AUDIOCHECKER v2.0 beta (build 457) - by Dester - opdester@freemail.hu
~~~~~~~~~~~~~~~~~~~~~~~~~~~~~~~~~~
-=== DO NOT EDIT THIS FILE! ===-
Path: ...\2011 - The Spade
01 -=- 01 Bodegas and Blood.flac -=- CDDA (100%)
02 -=- 02 Every Single Body Else.flac -=- CDDA (100%)
03 -=- 03 Summer of '89.flac -=- CDDA (100%)
04 -=- 04 Sweethearts.flac -=- CDDA (100%)
05 -=- 05 Day Drunk.flac -=- CDDA (100%)
06 -=- 06 Synthesizers.flac -=- CDDA (100%)
07 -=- 07 Dublin Crow.flac -=- CDDA (100%)
08 -=- 08 Closest Thing to You I'm Gonna Find.flac -=- CDDA (100%)
09 -=- 09 Bullt belt.flac -=- CDDA (99%)
10 -=- 10 Suckerpunch.flac -=- CDDA (100%)
Summary 99,90% CDDA
109643972
Код:
REM GENRE Rock
REM DATE 2011
REM DISCID 84087E0A
REM COMMENT "ExactAudioCopy v1.0b2"
CATALOG 0842803007127
PERFORMER "Butch Walker"
TITLE "Spade"
FILE "01 Bodegas and Blood.wav" WAVE
  TRACK 01 AUDIO
    TITLE "Bodegas and Blood"
    PERFORMER "Butch Walker"
    ISRC US3R21107101
    INDEX 01 00:00:00
FILE "02 Every Single Body Else.wav" WAVE
  TRACK 02 AUDIO
    TITLE "Every Single Body Else"
    PERFORMER "Butch Walker"
    ISRC US3R21107102
    INDEX 01 00:00:00
FILE "03 Summer of '89.wav" WAVE
  TRACK 03 AUDIO
    TITLE "Summer of '89"
    PERFORMER "Butch Walker"
    ISRC US3R21107103
    INDEX 01 00:00:00
FILE "04 Sweethearts.wav" WAVE
  TRACK 04 AUDIO
    TITLE "Sweethearts"
    PERFORMER "Butch Walker"
    ISRC US3R21107104
    INDEX 01 00:00:00
FILE "05 Day Drunk.wav" WAVE
  TRACK 05 AUDIO
    TITLE "Day Drunk"
    PERFORMER "Butch Walker"
    ISRC US3R21107105
    INDEX 01 00:00:00
  TRACK 06 AUDIO
    TITLE "Synthesizers"
    PERFORMER "Butch Walker"
    ISRC US3R21107106
    INDEX 00 03:51:12
FILE "06 Synthesizers.wav" WAVE
    INDEX 01 00:00:00
FILE "07 Dublin Crow.wav" WAVE
  TRACK 07 AUDIO
    TITLE "Dublin Crow"
    PERFORMER "Butch Walker"
    ISRC US3R21107107
    INDEX 01 00:00:00
  TRACK 08 AUDIO
    TITLE "Closest Thing to You I'm Gonna Find"
    PERFORMER "Butch Walker"
    ISRC US3R21107108
    INDEX 00 02:48:55
FILE "08 Closest Thing to You I'm Gonna Find.wav" WAVE
    INDEX 01 00:00:00
FILE "09 Bullet Belt.wav" WAVE
  TRACK 09 AUDIO
    TITLE "Bullt belt"
    PERFORMER "Butch Walker"
    ISRC US3R21107109
    INDEX 01 00:00:00
FILE "10 Suckerpunch.wav" WAVE
  TRACK 10 AUDIO
    TITLE "Suckerpunch"
    PERFORMER "Butch Walker"
    ISRC US3R21107110
    INDEX 01 00:00:00

20.10.2011. Добавлен новый альбом The Spade.
Правила, инструкции, FAQ!!!
Торрент  Добавлен [26 мар 2019, 19:24] Скачать торрент Магнет ссылка
Скачать торрент
[ Размер 28.37 КБ / Просмотров 0 ]

Статус
Проверен 
 
Размер  1.83 ГБ
Приватный: Нет (DHT включён)
.torrent скачан  0
 


     Отправить личное сообщение
   
Страница 1 из 1
Показать сообщения за:  Поле сортировки  
Начать новую тему Ответить на тему


Сейчас этот форум просматривают: нет зарегистрированных пользователей и гости: 0


Вы не можете начинать темы
Вы не можете отвечать на сообщения
Вы не можете редактировать свои сообщения
Вы не можете удалять свои сообщения
Вы не можете добавлять вложения

Перейти:  
cron