Начать новую тему Ответить на тему
Статистика раздачи
Размер: 1.08 ГБ | Добавлен: 26 мар 2019, 19:37 | Скачали: 0
Сидеров: 0  [0 байт/сек]    Личеров: 0  [0 байт/сек]
Пред. тема | След. тема 

Автор
Сообщение

СообщениеДобавлено: 26 мар 2019, 19:37 

Ответить с цитатой 

Bunbury - коллекция 2008-2011 (2CD)
Жанр: rock
Носитель: CD
Год издания: 2008-2011
Страна исполнителя (группы): Spain
 
 
 
 
 
 
 
 
 
 
 
 
 
 
Studio Albums
#777Страна-производитель диска: Spain
Год первого выпуска: 2008
Год настоящего издания: 2008
Издатель (лейбл): EMI Music Spain
Номер по каталогу: 50999 2 34801 2 4
Format: CD, Album, Enchanced
Аудиокодек: APE (*.ape)
Тип рипа: image+.cue
Битрейт аудио: lossless
Продолжительность: 00:54:52
Источник (релизер): ed2k (TheWarrior)
Наличие сканов в содержимом раздачи: да
Треклист:
01. El hombre delgado que no flaqueará jamás (06:52)
02. Porque las cosas cambian (04:17)
03. Bujías para el dolor (05:37)
04. Si no fuera por tí (04:52)
05. Hay muy poca gente (04:45)
06. El por qué de tus silencios (05:00)
07. Doscientos huesos y un collar de calaveras (04:22)
08. Irremediablemente cotidiano (04:52)
09. Canción cruel (04:09)
10. Todos lo haremos mejor en el futuro (04:40)
11. Aquí (05:22)
Код:
Exact Audio Copy V1.0 beta 3 from 29. August 2011
EAC extraction logfile from 10. July 2012, 12:18
Bunbury / HellVille De Luxe
Used drive  : HL-DT-STDVD-RAM GH22LS30   Adapter: 0  ID: 1
Read mode               : Secure
Utilize accurate stream : Yes
Defeat audio cache      : Yes
Make use of C2 pointers : No
Read offset correction                      : 102
Overread into Lead-In and Lead-Out          : Yes
Fill up missing offset samples with silence : Yes
Delete leading and trailing silent blocks   : No
Null samples used in CRC calculations       : Yes
Used interface                              : Installed external ASPI interface
Used output format : Internal WAV Routines
Sample format      : 44.100 Hz; 16 Bit; Stereo
TOC of the extracted CD
     Track |   Start  |  Length  | Start sector | End sector
    ---------------------------------------------------------
        1  |  0:00.00 |  6:52.03 |         0    |    30902
        2  |  6:52.03 |  4:17.31 |     30903    |    50208
        3  | 11:09.34 |  5:37.73 |     50209    |    75556
        4  | 16:47.32 |  4:52.00 |     75557    |    97456
        5  | 21:39.32 |  4:45.26 |     97457    |   118857
        6  | 26:24.58 |  5:00.38 |    118858    |   141395
        7  | 31:25.21 |  4:22.71 |    141396    |   161116
        8  | 35:48.17 |  4:52.06 |    161117    |   183022
        9  | 40:40.23 |  4:09.22 |    183023    |   201719
       10  | 44:49.45 |  4:40.19 |    201720    |   222738
       11  | 49:29.64 |  5:22.69 |    222739    |   246957
       12  | 57:24.58 |  6:38.37 |    258358    |   288244
Range status and errors
Selected range
     Filename C:\Users\j ignacioc\Music\B-2008  HellVille de luxe\B-2008  HellVille de luxe.wav
     Peak level 99.9 %
     Extraction speed 2.6 X
     Range quality 99.9 %
     Test CRC 7F9D22D4
     Copy CRC 7F9D22D4
     Copy OK
No errors occurred
AccurateRip summary
Track  1  accurately ripped (confidence 2)  [13CA7465]  (AR v2)
Track  2  accurately ripped (confidence 2)  [127D7672]  (AR v2)
Track  3  accurately ripped (confidence 2)  [0406CFFD]  (AR v2)
Track  4  accurately ripped (confidence 2)  [8813E956]  (AR v2)
Track  5  accurately ripped (confidence 2)  [1CE86928]  (AR v2)
Track  6  accurately ripped (confidence 2)  [B494C297]  (AR v2)
Track  7  accurately ripped (confidence 2)  [93C3EE60]  (AR v2)
Track  8  accurately ripped (confidence 2)  [A699CEBC]  (AR v2)
Track  9  accurately ripped (confidence 2)  [53400A61]  (AR v2)
Track 10  accurately ripped (confidence 2)  [4168BCC2]  (AR v2)
Track 11  accurately ripped (confidence 2)  [AF9B942A]  (AR v2)
All tracks accurately ripped
End of status report
---- CUETools DB Plugin V2.1.3
[CTDB TOCID: 6ixhgtpa_bUR6_nGGIT_Y5xkbvw-] found, Submit result: 6ixhgtpa_bUR6_nGGIT_Y5xkbvw- has been confirmed
[f508728d] (7/7) Accurately ripped
==== Log checksum 69AEB5AA5785598D5925DCA3D1E40D2A1B4775B55FA7555C32D0D1809E0DAD2E ====
Код:
REM GENRE Spanish Rock
REM DATE 2008
REM DISCID 9E0F030C
REM COMMENT ExactAudioCopy v1.0b3
CATALOG 5099923480124
PERFORMER "BUNBURY"
TITLE "HellVille De Luxe"
FILE "B-2008  HellVille de luxe.ape" WAVE
  TRACK 01 AUDIO
    TITLE "El hombre delgado que no flaqueará jamás"
    ISRC ES5080800560
    FLAGS DCP
    INDEX 01 00:00:00
  TRACK 02 AUDIO
    TITLE "Porque las cosas cambian"
    ISRC ES5080800561
    FLAGS DCP
    INDEX 01 06:52:03
  TRACK 03 AUDIO
    TITLE "Bujías para el dolor"
    ISRC ES5080800562
    FLAGS DCP
    INDEX 01 11:09:34
  TRACK 04 AUDIO
    TITLE "Si no fuera por ti"
    ISRC ES5080800563
    FLAGS DCP
    INDEX 01 16:47:32
  TRACK 05 AUDIO
    TITLE "Hay muy poca gente"
    ISRC ES5080800564
    FLAGS DCP
    INDEX 01 21:39:32
  TRACK 06 AUDIO
    TITLE "El por qué de tus silencios"
    ISRC ES5080800565
    FLAGS DCP
    INDEX 00 26:23:52
    INDEX 01 26:24:58
  TRACK 07 AUDIO
    TITLE "Doscientos huesos y un collar de calaveras"
    ISRC ES5080800566
    FLAGS DCP
    INDEX 01 31:25:21
  TRACK 08 AUDIO
    TITLE "Irremediablemente cotidiano"
    ISRC ES5080800567
    FLAGS DCP
    INDEX 01 35:48:17
  TRACK 09 AUDIO
    TITLE "Canción cruel"
    ISRC ES5080800568
    FLAGS DCP
    INDEX 00 40:40:22
    INDEX 01 40:40:23
  TRACK 10 AUDIO
    TITLE "Todos lo haremos mejor en el futuro"
    ISRC ES5080800569
    FLAGS DCP
    INDEX 00 44:49:44
    INDEX 01 44:49:45
  TRACK 11 AUDIO
    TITLE "Aquí"
    ISRC ES5080800570
    FLAGS DCP
    INDEX 00 49:29:61
    INDEX 01 49:29:64
Код:
AUDIOCHECKER v2.0 beta (build 457) - by Dester - opdester@freemail.hu
Path: ...\1.Bunbury - Hellville De Luxe - 2008
1 -=- B-2008  HellVille de luxe.ape -=- CDDA (100%)
160896580
Live Albums
#777Страна-производитель диска: Spain
Год первого выпуска: 2011
Год настоящего издания: 2011
Издатель (лейбл): Emi Music Spain
Номер по каталогу: 5099902622125
Format: 2xCD, Album
Аудиокодек: APE (*.ape)
Тип рипа: image+.cue
Битрейт аудио: lossless
Источник (релизер): eDonkey/ed2k (pelucho)
Наличие сканов в содержимом раздачи: да
Продолжительность: 00:56:25
Треклист:
01. Las Consecuencias (05:53)
02. De todo el Mundo - The Stargate Mix (05:02)
03. Frente A Frente (03:50)
04. Los Habitantes (05:55)
05. Enganchado a ti (04:45)
06. El Extranjero (04:00)
07. Desmejorado (05:20)
08. Alicia (04:10)
09. El Rescate (04:32)
10. Hay Muy Poca Gente (05:00)
11. Que Tengas Suertecita (04:05)
12. Solo si me Perdonas (03:52)
Код:
Exact Audio Copy V1.0 beta 3 from 29. August 2011
EAC extraction logfile from 1. February 2012, 21:16
Bunbury / Gran Rex
Used drive  : _NEC    DVD_RW ND-2510A   Adapter: 2  ID: 0
Read mode               : Secure
Utilize accurate stream : Yes
Defeat audio cache      : Yes
Make use of C2 pointers : No
Read offset correction                      : 48
Overread into Lead-In and Lead-Out          : No
Fill up missing offset samples with silence : Yes
Delete leading and trailing silent blocks   : No
Null samples used in CRC calculations       : Yes
Used interface                              : Native Win32 interface for Win NT & 2000
Used output format : Internal WAV Routines
Sample format      : 44.100 Hz; 16 Bit; Stereo
TOC of the extracted CD
     Track |   Start  |  Length  | Start sector | End sector
    ---------------------------------------------------------
        1  |  0:00.00 |  5:52.51 |         0    |    26450
        2  |  5:52.51 |  5:02.14 |     26451    |    49114
        3  | 10:54.65 |  3:50.17 |     49115    |    66381
        4  | 14:45.07 |  5:55.18 |     66382    |    93024
        5  | 20:40.25 |  4:45.28 |     93025    |   114427
        6  | 25:25.53 |  3:59.64 |    114428    |   132416
        7  | 29:25.42 |  5:20.36 |    132417    |   156452
        8  | 34:46.03 |  4:10.23 |    156453    |   175225
        9  | 38:56.26 |  4:32.12 |    175226    |   195637
       10  | 43:28.38 |  4:59.74 |    195638    |   218136
       11  | 48:28.37 |  4:05.25 |    218137    |   236536
       12  | 52:33.62 |  3:51.74 |    236537    |   253935
Range status and errors
Selected range
     Filename E:\Users\Javi\Desktop\LOSSLESS\BUNBURY (2011) Gran Rex\Bunbury - Gran Rex.wav
     Peak level 97.7 %
     Extraction speed 6.3 X
     Range quality 100.0 %
     Test CRC B6A42384
     Copy CRC B6A42384
     Copy OK
No errors occurred
AccurateRip summary
Track  1  not present in database
Track  2  not present in database
Track  3  not present in database
Track  4  not present in database
Track  5  not present in database
Track  6  not present in database
Track  7  not present in database
Track  8  not present in database
Track  9  not present in database
Track 10  not present in database
Track 11  not present in database
Track 12  not present in database
None of the tracks are present in the AccurateRip database
End of status report
---- CUETools DB Plugin V2.1.3
[CTDB TOCID: qcv.FTTiZq9IDyrWAhy_Jw19SOw-] disk not present in database, Submit result: qcv.FTTiZq9IDyrWAhy_Jw19SOw- has been uploaded
==== Log checksum AC38C06526730DEB510B53D2E4F2083716E51A7B29089C6314C507FA72B91BB3 ====
Код:
REM GENRE Latin
REM DATE 2011
REM DISCID A80D390C
REM COMMENT "ExactAudioCopy v1.0b3"
CATALOG 5099902622224
PERFORMER "Bunbury"
TITLE "Gran Rex"
FILE "BUNBURY (2011) - Gran Rex (CD1).ape" WAVE
  TRACK 01 AUDIO
    TITLE "Las Consecuencias"
    PERFORMER "Bunbury"
    ISRC ES5081100092
    INDEX 01 00:00:00
  TRACK 02 AUDIO
    TITLE "De Todo El Mundo"
    PERFORMER "Bunbury"
    ISRC ES5081100093
    INDEX 01 05:52:51
  TRACK 03 AUDIO
    TITLE "Frente a Frente"
    PERFORMER "Bunbury"
    ISRC ES5081100094
    INDEX 01 10:54:65
  TRACK 04 AUDIO
    TITLE "Los Habitantes"
    PERFORMER "Bunbury"
    ISRC ES5081100095
    INDEX 01 14:45:07
  TRACK 05 AUDIO
    TITLE "Enganchado a Ti"
    PERFORMER "Bunbury"
    ISRC ES5081100096
    INDEX 01 20:40:25
  TRACK 06 AUDIO
    TITLE "El Extranjero"
    PERFORMER "Bunbury"
    ISRC ES5081100097
    INDEX 01 25:25:53
  TRACK 07 AUDIO
    TITLE "Desmejorado"
    PERFORMER "Bunbury"
    ISRC ES5081100098
    INDEX 01 29:25:42
  TRACK 08 AUDIO
    TITLE "Alicia"
    PERFORMER "Bunbury"
    ISRC ES5081100099
    INDEX 01 34:46:03
  TRACK 09 AUDIO
    TITLE "El Rescate"
    PERFORMER "Bunbury"
    ISRC ES5081100100
    INDEX 01 38:56:26
  TRACK 10 AUDIO
    TITLE "Hay Muy Poca Gente"
    PERFORMER "Bunbury"
    ISRC ES5081100101
    INDEX 01 43:28:38
  TRACK 11 AUDIO
    TITLE "Que Tengas Suertecita"
    PERFORMER "Bunbury"
    ISRC ES5081100102
    INDEX 01 48:28:37
  TRACK 12 AUDIO
    TITLE "Sуlo Si Me Perdonas"
    PERFORMER "Bunbury"
    ISRC ES5081100103
    INDEX 01 52:33:62
Код:
AUDIOCHECKER v2.0 beta (build 457) - by Dester - opdester@freemail.hu
Path: ...\2.Bunbury - Gran Rex - 2011
1 -=- BUNBURY (2011) - Gran Rex (CD1).ape -=- CDDA (100%)
154224660
Продолжительность: 00:57:53
Треклист:
01. Sacame de aqui (04:38)
02. Si (03:30)
03. Infinito (05:34)
04. Apuesta Por El Rock & Roll (04:25)
05. Puta Desagradecida (05:00)
06. El Hombre delgado que no flaqueara jamas (06:14)
07. El Anzuelo (04:50)
08. Lady Blue (04:44)
09. Canto (El Mismo Dolor) (04:26)
10. 200 Huesos Y Un Collar De Calaveras (04:24)
11. Porque Las Cosas Cambian (04:41)
12. El Viento A Favor (05:28)
Код:
Exact Audio Copy V1.0 beta 3 from 29. August 2011
EAC extraction logfile from 1. February 2012, 21:47
Bunbury / Gran Rex (CD2)
Used drive  : _NEC    DVD_RW ND-2510A   Adapter: 2  ID: 0
Read mode               : Secure
Utilize accurate stream : Yes
Defeat audio cache      : Yes
Make use of C2 pointers : No
Read offset correction                      : 48
Overread into Lead-In and Lead-Out          : No
Fill up missing offset samples with silence : Yes
Delete leading and trailing silent blocks   : No
Null samples used in CRC calculations       : Yes
Used interface                              : Installed external ASPI interface
Used output format : Internal WAV Routines
Sample format      : 44.100 Hz; 16 Bit; Stereo
TOC of the extracted CD
     Track |   Start  |  Length  | Start sector | End sector
    ---------------------------------------------------------
        1  |  0:00.00 |  4:38.29 |         0    |    20878
        2  |  4:38.29 |  3:29.74 |     20879    |    36627
        3  |  8:08.28 |  5:33.56 |     36628    |    61658
        4  | 13:42.09 |  4:25.04 |     61659    |    81537
        5  | 18:07.13 |  5:00.09 |     81538    |   104046
        6  | 23:07.22 |  6:13.50 |    104047    |   132071
        7  | 29:20.72 |  4:49.60 |    132072    |   153806
        8  | 34:10.57 |  4:44.31 |    153807    |   175137
        9  | 38:55.13 |  4:26.07 |    175138    |   195094
       10  | 43:21.20 |  4:23.44 |    195095    |   214863
       11  | 47:44.64 |  4:40.60 |    214864    |   235923
       12  | 52:25.49 |  5:27.54 |    235924    |   260502
Range status and errors
Selected range
     Filename E:\Users\Javi\Desktop\LOSSLESS\BUNBURY (2011) Gran Rex\Bunbury - Gran Rex (CD2).wav
     Peak level 98.8 %
     Extraction speed 6.1 X
     Range quality 99.9 %
     Test CRC 35FA2965
     Copy CRC 35FA2965
     Copy OK
No errors occurred
AccurateRip summary
Track  1  not present in database
Track  2  not present in database
Track  3  not present in database
Track  4  not present in database
Track  5  not present in database
Track  6  not present in database
Track  7  not present in database
Track  8  not present in database
Track  9  not present in database
Track 10  not present in database
Track 11  not present in database
Track 12  not present in database
None of the tracks are present in the AccurateRip database
End of status report
---- CUETools DB Plugin V2.1.3
[CTDB TOCID: S0iAUykbFpDS.CLxhOZGz_IvWdU-] disk not present in database, Submit result: S0iAUykbFpDS.CLxhOZGz_IvWdU- has been uploaded
==== Log checksum 7000A742535486BBA7211A99BE38F9154D5EDA32A5ABB2961A48F42F91E520C5 ====
Код:
REM GENRE Latin
REM DATE 2011
REM DISCID A60D910C
REM COMMENT "ExactAudioCopy v1.0b3"
CATALOG 5099902622323
PERFORMER "Bunbury"
TITLE "Gran Rex (CD2)"
FILE "BUNBURY (2011) - Gran Rex (CD2).ape" WAVE
  TRACK 01 AUDIO
    TITLE "Sacame De Aqui"
    PERFORMER "Bunbury"
    ISRC ES5081100104
    INDEX 01 00:00:00
  TRACK 02 AUDIO
    TITLE "Si"
    PERFORMER "Bunbury"
    ISRC ES5081100105
    INDEX 01 04:38:29
  TRACK 03 AUDIO
    TITLE "Infinito"
    PERFORMER "Bunbury"
    ISRC ES5081100106
    INDEX 01 08:08:28
  TRACK 04 AUDIO
    TITLE "Apuesta Por El Rock & Roll"
    PERFORMER "Bunbury"
    ISRC ES5081100107
    INDEX 01 13:42:09
  TRACK 05 AUDIO
    TITLE "Puta Desagradecida"
    PERFORMER "Bunbury"
    ISRC ES5081100108
    INDEX 01 18:07:13
  TRACK 06 AUDIO
    TITLE "El Hombre Delgado Que No Flaqueara Jamas"
    PERFORMER "Bunbury"
    ISRC ES5081100109
    INDEX 01 23:07:22
  TRACK 07 AUDIO
    TITLE "El Anzuelo"
    PERFORMER "Bunbury"
    ISRC ES5081100110
    INDEX 01 29:20:72
  TRACK 08 AUDIO
    TITLE "Lady Blue"
    PERFORMER "Bunbury"
    ISRC ES5081100111
    INDEX 01 34:10:57
  TRACK 09 AUDIO
    TITLE "Canto (El Mismo Dolor)"
    PERFORMER "Bunbury"
    ISRC ES5081100112
    INDEX 01 38:55:13
  TRACK 10 AUDIO
    TITLE "200 Huesos Y Un Collar De Calaveras"
    PERFORMER "Bunbury"
    ISRC ES5081100113
    INDEX 01 43:21:20
  TRACK 11 AUDIO
    TITLE "Porque Las Cosas Cambian"
    PERFORMER "Bunbury"
    ISRC ES5081100114
    INDEX 01 47:44:64
  TRACK 12 AUDIO
    TITLE "El Viento A Favor"
    PERFORMER "Bunbury"
    ISRC ES5081100115
    INDEX 01 52:25:49
Код:
AUDIOCHECKER v2.0 beta (build 457) - by Dester - opdester@freemail.hu
Path: ...\2.Bunbury - Gran Rex - 2011
1 -=- BUNBURY (2011) - Gran Rex (CD2).ape -=- CDDA (100%)
154990612
Доп. информация: Весьма неплохой концерт группы Enrique Bunbury в зале аргентинского театра Gran Rex в ноябре 2010 года. Напевный, мелодичный латино-рок. Запись сделана с обновлённым составом музыкантов - с бандой The Holy Innocents. Записано качественно, с использованием студийной аппаратуры. Альбом занял в Испании почётное место № 1 в списке альбомов 2011 года.

Enrique Bunbury (vocal)
band:
Ramon gacias (drums),
Robert Cunningham (bass and vocals),
Jorge 'Rebbe' Rebenaque (piano, Hammond, accordion and strings),
Jordi Mena (guitars, mandolin, banjo and pedal steel),
Alvaro Suite (guitars and vocals)
Доп. информация: Очень интересная рок-группа из Испании, названная в честь основателя Enrique Banbury.

Studio albums
1997 Radical Sonora
1999 Pequeño
2002 Flamingos
2004 El Viaje a Ninguna Parte
2008 Hellville de Luxe
2010 Las Consecuencias
2011 Licenciado Cantinas
2013 Palosanto
Live albums
2000 Pequeño Cabaret Ambulante
2003 Una Cita en Flamingos
2005 Freak Show
2011 Gran Rex - Las Consecuencias en Vivo
2012 De Cantina en Cantina. On Stage 2011-12 Live
2013 Cualquier Tiempo Pasado... Live 2011-2012
2015 MTV Unplugged: El Libro De Las Mutaciones
Правила, инструкции, FAQ!!!
Торрент  Добавлен [26 мар 2019, 19:37] Скачать торрент Магнет ссылка
Скачать торрент
[ Размер 14.48 КБ / Просмотров 2 ]

Статус
Проверен 
 
Размер  1.08 ГБ
Приватный: Нет (DHT включён)
.torrent скачан  0
 


     Отправить личное сообщение
   
Страница 1 из 1
Показать сообщения за:  Поле сортировки  
Начать новую тему Ответить на тему


Сейчас этот форум просматривают: нет зарегистрированных пользователей и гости: 0


Вы не можете начинать темы
Вы не можете отвечать на сообщения
Вы не можете редактировать свои сообщения
Вы не можете удалять свои сообщения
Вы не можете добавлять вложения

Перейти:  
cron