Начать новую тему Ответить на тему
Статистика раздачи
Размер: 302.51 МБ | Добавлен: 26 мар 2019, 20:37 | Скачали: 0
Сидеров: 0  [0 байт/сек]    Личеров: 0  [0 байт/сек]
Пред. тема | След. тема 

Автор
Сообщение

СообщениеДобавлено: 26 мар 2019, 20:37 

Ответить с цитатой 

Supergrass - Supergrass
Жанр: Rock/Britpop
Год выпуска диска: 1999
Производитель диска: UK
Аудио кодек: APE
Тип рипа: image+.cue
Битрейт аудио: lossless
Продолжительность: 45:57
Трэклист:
1. Moving 4:28
2. Your Love 3:29
3. What Went Wrong (In Your Head) 4:07
4. Beautiful People 3:24
5. Shotover Hill 3:45
6. Eon 3:46
7. Mary 4:01
8. Jesus Came From Outta Space 4:12
9. Pumping On Your Stereo 3:22
10. Born Again 3:40
11. Faraway 5:07
12. Mama And Papa 2:30
Доп. информация:
Оксфордская группа "Supergrass" изначально считалась последовательницей гитарного инди 90-х годов, но впоследствии скатилась в рок-мэйнстрим. Костяк банды составили Дэнни Гоффи (ударные), Гэри Кумбс (вокал, гитара) и Микки Куинн (бас). Первые двое раньше играли в "The Jennifers", и даже выпустили под этим именем один сингл на "Nude records". В начале 1994-го к ним присоединился Куинн, и трио приступило к репетициям, взяв ориентир на творчество "Pixies", "Sonic youth" и "Buzzcocks". Первый концерт, проведенный "Supergrass", продолжался всего полчаса и был интересен скорее не музыкальным исполнением, а энтузиазмом его участников.
Дебютный сингл коллектива, "Caught by the fuzz", был посвящен личным воспоминаниям Кумбса о его аресте за марихуану. Выпускался он в трех разных вариантах и, наконец, смог привлечь к себе внимание, когда фирме "Backbeat" удалось распространить 250 экземпляров.
Оксфордцами заинтересовались люди из "Parlophone", и уже в октябре 1994-го мажоры переиздали "Caught by the fuzz". Получивший солидную поддержку, сингл добрался до 42-й строчки британских чартов, а известный радио-диджей Джон Пил отдал песне пятое место. "Supergrass" немного покатались в компании с "Shed Seven", а затем выступили на разогреве у "Blur". В начале 1995-го вышел второй сингл, "Man size rooster", за ним последовал полноформатный альбом. "I should coco" записывался в "Sawmills Studios", а продюсировал его вокалист "Mystics" Сэм Вильямс. Самой популярной композицией на диске была "Alright". Именно благодаря этой песне, сделанной в духе "Monkees", музыканты группы в одночасье стали знаменитостями.
Сингл "Alright" занял в британских чартах только второе место, но зато помог альбому взобраться на самую верхушку хит-парада. В результате песни с "I should coco" провели в плэй-листах радиостанций большую часть 1996 года.
В 1997-м группа созрела для второго альбома, и с его помощью доказала, что является одним из ярких талантов на британской сцене. "In It For The Money" оказался удачной подборкой светлых, мелодичных песен, причем некоторые вещи напоминали о старом добром рок-н-ролльном прошлом. Так, композиция "Richard III" была выдержана в духе ранних "серфовых" "Beach boys", а "Late in the day" навеивала воспоминания о славных деньках "Beatles". Третий релиз команды был не таким удачным, как предшествующие работы. Сам Кумбс отметил, что некоторые композиции с альбома его откровенно разочаровывают.
Наверно, этот момент и стал причиной того, что после "Supergrass" в студийной работе коллектива наступила трехлетняя пауза. Группа вернулась в 2002-м с рассказом о "жизни на других планетах", выдержанном все в том же бритпоповом стиле. А свое десятилетие трио из Оксфорда отметило выпуском сборника "Supergrass is 10", куда кроме синглового материала попало несколько новых треков.
I Should Coco - 1995
In It For The Money - 1997
Supergrass - 1999
Life On Other Planets - 2002
Road To Rouen - 2005
Diamond Hoo Ha - 2008
Gary Coombes - вокал, гитара
Danny Goffey - ударные
Mickey Quinn - бас
Exact Audio Copy V0.99 prebeta 4 from 23. January 2008
Отчёт EAC об извлечении, выполненном 17. июня 2008, 19:45
Supergrass / Supergrass
Дисковод: _NEC DVD_RW ND-4550A Adapter: 3 ID: 0
Режим чтения : Достоверность
Использование точного потока : Да
Отключение кэша аудио : Да
Использование указателей C2 : Нет
Коррекция смещения при чтении : 48
Способность читать области Lead-in и Lead-out : Нет
Заполнение пропущенных сэмплов тишиной : Да
Удаление блоков с тишиной в начале и конце : Нет
При вычислениях CRC использовались нулевые сэмплы : Да
Интерфейс : Встроенный Win32-интерфейс для Win NT/2000
Выходной формат : Monkey's Audio (без потерь)
Выбранный битрейт : Normal Lossless Compression
Качество : Высокий
Добавление ID3-тэга : Нет
Утилита сжатия : C:\Program Files\Monkey's Audio\MAC.exe
Дополнительные параметры : -v
Смещение при сжатии : 0
TOC извлечённого CD
Трек | Старт | Длительность | Начальный сектор | Конечный сектор
---------------------------------------------------------------------
1 | 0:00.00 | 4:28.60 | 0 | 20159
2 | 4:28.60 | 3:29.07 | 20160 | 35841
3 | 7:57.67 | 4:07.55 | 35842 | 54421
4 | 12:05.47 | 3:24.03 | 54422 | 69724
5 | 15:29.50 | 3:45.02 | 69725 | 86601
6 | 19:14.52 | 3:46.63 | 86602 | 103614
7 | 23:01.40 | 4:01.72 | 103615 | 121761
8 | 27:03.37 | 4:12.25 | 121762 | 140686
9 | 31:15.62 | 3:22.30 | 140687 | 155866
10 | 34:38.17 | 3:40.68 | 155867 | 172434
11 | 38:19.10 | 5:07.22 | 172435 | 195481
12 | 43:26.32 | 2:30.63 | 195482 | 206794
Характеристики диапазона извлечения и сообщения об ошибках
Выбранный диапазон
Имя файла E:\Моя Музыка\EAC.ape\Supergrass[rutracker.org]\Supergrass - Supergrass.wav
Пиковый уровень 97.9 %
Качество диапазона 100.0 %
CRC копии D0210779
Копирование... OK
Ошибок не произошло
AccurateRip: сводка
Трек 1 нет в базе данных
Трек 2 нет в базе данных
Трек 3 нет в базе данных
Трек 4 нет в базе данных
Трек 5 нет в базе данных
Трек 6 нет в базе данных
Трек 7 нет в базе данных
Трек 8 нет в базе данных
Трек 9 нет в базе данных
Трек 10 нет в базе данных
Трек 11 нет в базе данных
Трек 12 нет в базе данных
Ни одного трека нет в базе AccurateRip
Конец отчёта
Правила, инструкции, FAQ!!!
Торрент  Добавлен [26 мар 2019, 20:37] Скачать торрент Магнет ссылка
Скачать торрент
[ Размер 12.46 КБ / Просмотров 1 ]

Статус
Проверен 
 
Размер  302.51 МБ
Приватный: Нет (DHT включён)
.torrent скачан  0
 


     Отправить личное сообщение
   
Страница 1 из 1
Показать сообщения за:  Поле сортировки  
Начать новую тему Ответить на тему


Сейчас этот форум просматривают: нет зарегистрированных пользователей и гости: 0


Вы не можете начинать темы
Вы не можете отвечать на сообщения
Вы не можете редактировать свои сообщения
Вы не можете удалять свои сообщения
Вы не можете добавлять вложения

Перейти:  
cron