Начать новую тему Ответить на тему
Статистика раздачи
Размер: 360.89 МБ | Добавлен: 26 мар 2019, 20:05 | Скачали: 0
Сидеров: 0  [0 байт/сек]    Личеров: 0  [0 байт/сек]
Пред. тема | След. тема 

Автор
Сообщение

СообщениеДобавлено: 26 мар 2019, 20:05 

Ответить с цитатой 

U2 / Boy [1980/1990, France, Island Records (842 296-2)]
Жанр: Rock
Страна-производитель диска: France
Год издания: 1980/1990
Издатель (лейбл): Island Records
Номер по каталогу: 842 296-2
Страна: Ireland
Аудиокодек: FLAC (*.flac)
Тип рипа: image+.cue
Битрейт аудио: lossless
Продолжительность: 42:17
Источник (релизер): собственный рип
Наличие сканов в содержимом раздачи: да
Треклист:
1. I Will Follow (3:37)
2. Twilight (4:23)
3. An Cat Dubh (4:47)
4. Into The Heart (3:28)
5. Out Of Control (4:14)
6. Stories For boys (3:03)
7. The Ocean (1:35)
8. A Day Without Me (3:13)
9. Another Time. Another Place (4:33)
10. The Electric Co. (4:48)
11. Shadows And Tall Trees (4:37)
Код:
Exact Audio Copy V1.0 beta 1 from 15. November 2010
EAC extraction logfile from 21. May 2012, 22:00
U2 / Boy
Used drive  : Optiarc DVD RW AD-7263S   Adapter: 3  ID: 0
Read mode               : Secure
Utilize accurate stream : Yes
Defeat audio cache      : Yes
Make use of C2 pointers : No
Read offset correction                      : 48
Overread into Lead-In and Lead-Out          : No
Fill up missing offset samples with silence : Yes
Delete leading and trailing silent blocks   : No
Null samples used in CRC calculations       : Yes
Used interface                              : Native Win32 interface for Win NT & 2000
Used output format : Internal WAV Routines
Sample format      : 44.100 Hz; 16 Bit; Stereo
TOC of the extracted CD
     Track |   Start  |  Length  | Start sector | End sector
    ---------------------------------------------------------
        1  |  0:00.32 |  3:37.28 |        32    |    16334
        2  |  3:37.60 |  4:22.27 |     16335    |    36011
        3  |  8:00.12 |  4:47.03 |     36012    |    57539
        4  | 12:47.15 |  3:27.57 |     57540    |    73121
        5  | 16:14.72 |  4:13.68 |     73122    |    92164
        6  | 20:28.65 |  3:02.42 |     92165    |   105856
        7  | 23:31.32 |  1:35.05 |    105857    |   112986
        8  | 25:06.37 |  3:13.28 |    112987    |   127489
        9  | 28:19.65 |  4:33.17 |    127490    |   147981
       10  | 32:53.07 |  4:47.63 |    147982    |   169569
       11  | 37:40.70 |  4:36.45 |    169570    |   190314
Range status and errors
Selected range
     Filename C:\Documents and Settings\maxim\Мои документы\Моя музыка\U2 - Boy.wav
     Peak level 95.5 %
     Extraction speed 0.4 X
     Range quality 100.0 %
     Test CRC 8A8AF75C
     Copy CRC 8A8AF75C
     Copy OK
No errors occurred
AccurateRip summary
Track  1  accurately ripped (confidence 2)  [8E11A4D9]
Track  2  accurately ripped (confidence 2)  [E9A11F44]
Track  3  accurately ripped (confidence 2)  [8F0E525A]
Track  4  accurately ripped (confidence 2)  [B998C006]
Track  5  accurately ripped (confidence 2)  [C009B3A3]
Track  6  accurately ripped (confidence 2)  [8D96BDA6]
Track  7  accurately ripped (confidence 2)  [27C4EDA5]
Track  8  accurately ripped (confidence 2)  [F4D6F964]
Track  9  accurately ripped (confidence 2)  [365D4BA3]
Track 10  accurately ripped (confidence 2)  [0BAD3F44]
Track 11  accurately ripped (confidence 2)  [812B1217]
All tracks accurately ripped
End of status report
==== Log checksum 1A4EC69F3B59F9399F1EE194854E1ABC304F027779646B41DF95F6B4C3310056 ====
Код:
[url=https://fastpic.ru/view/38/2012/0522/d77909e155a39426e96834ccda541f90.jpg.html][img]http://i38.fastpic.ru/thumb/2012/0522/90/d77909e155a39426e96834ccda541f90.jpeg[/img][/url][url=https://fastpic.ru/view/38/2012/0522/78cf54ee569ff2e925f5d896b3d2450b.jpg.html][img]http://i38.fastpic.ru/thumb/2012/0522/0b/78cf54ee569ff2e925f5d896b3d2450b.jpeg[/img][/url][url=https://fastpic.ru/view/38/2012/0522/11b4041b3f5287ee948f293f8d577b8e.jpg.html][img]http://i38.fastpic.ru/thumb/2012/0522/8e/11b4041b3f5287ee948f293f8d577b8e.jpeg[/img][/url]
AUDIOCHECKER v2.0 beta (build 457) - by Dester - opdester@freemail.hu
~~~~~~~~~~~~~~~~~~~~~~~~~~~~~~~~~~
-=== DO NOT EDIT THIS FILE! ===-
Path: ...\U2 - Boy
1 -=- U2 - Boy.flac -=- CDDA (100%)
212523332
-----------------------
DON'T MODIFY THIS FILE
-----------------------
PERFORMER: auCDtect Task Manager, ver. 1.5.1RC4 build 1.5.1.5
Copyright (c) 2008-2010 y-soft. All rights reserved
http://y-soft.org
ANALYZER: auCDtect: CD records authenticity detector, version 0.8.2
Copyright (c) 2004 Oleg Berngardt. All rights reserved.
Copyright (c) 2004 Alexander Djourik. All rights reserved.
FILE: U2 - Boy.flac
Size: 284437524 Hash: 6E6E7A7A97C939F149C566E1215F334A Accuracy: -m0
Conclusion: CDDA 100%
Signature: 92333D4AC09F1DB499E6FAB8A652446EB1ABECAF
Bass – Adam Clayton
Drums – Larry*
Engineer – Paul Thomas
Guitar – Edge, The
Management – Paul McGuinness (2)
Producer – Steve Lillywhite
Vocals – Bono
Written-By – U2
Правила, инструкции, FAQ!!!
Торрент  Добавлен [26 мар 2019, 20:05] Скачать торрент Магнет ссылка
Скачать торрент
[ Размер 14.89 КБ / Просмотров 1 ]

Статус
Проверен 
 
Размер  360.89 МБ
Приватный: Нет (DHT включён)
.torrent скачан  0
 


     Отправить личное сообщение
   
Страница 1 из 1
Показать сообщения за:  Поле сортировки  
Начать новую тему Ответить на тему


Сейчас этот форум просматривают: нет зарегистрированных пользователей и гости: 0


Вы не можете начинать темы
Вы не можете отвечать на сообщения
Вы не можете редактировать свои сообщения
Вы не можете удалять свои сообщения
Вы не можете добавлять вложения

Перейти:  
cron