Начать новую тему Ответить на тему
Статистика раздачи
Размер: 186.04 МБ | Добавлен: 26 мар 2019, 19:30 | Скачали: 0
Сидеров: 0  [0 байт/сек]    Личеров: 0  [0 байт/сек]
Пред. тема | След. тема 

Автор
Сообщение

СообщениеДобавлено: 26 мар 2019, 19:30 

Ответить с цитатой 

Joel Dayde / White Soul
Жанр: Rock, Blues Rock, Folk Rock, Psychedelic Rock
Носитель: WEB
Год издания: 1970/2014
Издатель (лейбл): Barclay
Страна исполнителя (группы): France
Аудиокодек: FLAC (*.flac)
Тип рипа: tracks
Битрейт аудио: lossless
Продолжительность: 00:28:29
Источник (релизер): 7digital
Наличие сканов в содержимом раздачи: Front
Треклист:
01. A Better Place
02. Soul Snatching Woman
03. The End Is Pretty Hard To Take
04. Years Of Solitude
05. Overtime
06. Evil Lady Loving
07. City People
08. Pipriac Song
09. Them
10. Do It Now
Код:
foobar2000 1.1.10 / Dynamic Range Meter 1.1.1
log date: 2018-01-09 16:39:51
--------------------------------------------------------------------------------
Analyzed: Joel Dayde / White Soul
--------------------------------------------------------------------------------
DR         Peak         RMS     Duration Track
--------------------------------------------------------------------------------
DR11       0.00 dB   -12.96 dB      2:57 ?-A Better Place
DR11      -1.25 dB   -15.46 dB      3:20 ?-Soul Snatching Woman
DR8       -3.37 dB   -13.58 dB      3:27 ?-The End Is Pretty Hard To Take
DR12       0.00 dB   -14.13 dB      2:35 ?-Years Of Solitude
DR11       0.00 dB   -11.48 dB      2:33 ?-Overtime
DR11       0.00 dB   -12.76 dB      3:10 ?-Evil Lady Loving
DR12       0.00 dB   -14.68 dB      2:39 ?-City People
DR13      -4.43 dB   -20.75 dB      1:47 ?-Pipriac Song
DR7       -2.82 dB   -12.57 dB      3:24 ?-Them
DR7       -1.18 dB   -10.06 dB      2:37 ?-Do It Now
--------------------------------------------------------------------------------
Number of tracks:  10
Official DR value: DR10
Samplerate:        44100 Hz
Channels:          2
Bits per sample:   16
Bitrate:           1003 kbps
Codec:             FLAC
================================================================================
Код:
-----------------------
DON'T MODIFY THIS FILE
-----------------------
PERFORMER: auCDtect Task Manager, ver. 1.5.1RC4 build 1.5.1.5
Copyright (c) 2008-2010 y-soft. All rights reserved
[url=http://y-soft.org]http://y-soft.org[/url]
ANALYZER: auCDtect: CD records authenticity detector, version 0.8.2
Copyright (c) 2004 Oleg Berngardt. All rights reserved.
Copyright (c) 2004 Alexander Djourik. All rights reserved.
FILE: 10. Do It Now.flac
  Size: 20012813 Hash: 1E9D35E67F700C34BF23121F3D7E9F81 Accuracy: -m0
  Conclusion: CDDA 100%
  Signature: A98F8B7FF68D33FC65D9F54A5973926B546D9722
FILE: 09. Them.flac
  Size: 25924392 Hash: CAE68EF7B9A7E20AA5DBF0D30B4F1D06 Accuracy: -m0
  Conclusion: CDDA 100%
  Signature: C401ABBC266443739331D43C415ECB39947A5397
FILE: 08. Pipriac Song.flac
  Size: 10776669 Hash: FDED446AF31AA978CC6A508475EB1797 Accuracy: -m0
  Conclusion: CDDA 100%
  Signature: 4AD11831785C16A628B57D17E09DD97A0C482184
FILE: 07. City People.flac
  Size: 16501322 Hash: E0D69A7665270A97C5C5E38043765D42 Accuracy: -m0
  Conclusion: CDDA 100%
  Signature: 3EA0557163F22AB4DA59F2FB6D83C26297588E74
FILE: 06. Evil Lady Loving.flac
  Size: 21614339 Hash: FD7123EB1FF43F5B5C0876DB6FA206DE Accuracy: -m0
  Conclusion: CDDA 100%
  Signature: 28DE87A66148B1A43196CB4FE14178407C8F07F0
FILE: 05. Overtime.flac
  Size: 18331183 Hash: DA7BDE4A3D2812CEBB6897A2544A0573 Accuracy: -m0
  Conclusion: CDDA 100%
  Signature: 6E40DB04F3C44B2A60393BE394D99EC4FB75332B
FILE: 04. Years Of Solitude.flac
  Size: 16890130 Hash: 896305554CE16B14C58A328A17815439 Accuracy: -m0
  Conclusion: CDDA 100%
  Signature: 29553077A7DD240286E7E15575C8A42C6F800A35
FILE: 03. The End Is Pretty Hard To Take.flac
  Size: 23537410 Hash: 8D53E199208C99C080B3B0D8448E5DAE Accuracy: -m0
  Conclusion: CDDA 100%
  Signature: E887843CD205B87FBB17C8626B7465746E4E5457
FILE: 02. Soul Snatching Woman.flac
  Size: 20502314 Hash: 92F18E2A28DD008D219E00A2078E91C1 Accuracy: -m0
  Conclusion: CDDA 100%
  Signature: 98F1EA4C27A892B67FCFA553791AA13C18F61061
FILE: 01. A Better Place.flac
  Size: 20673986 Hash: 160571F9054065C9FD07C54EF044B72B Accuracy: -m0
  Conclusion: CDDA 100%
  Signature: BCD17E952106401026E1D981971D513F38FDF07A
[url=https://fr.wikipedia.org/wiki/Joël_Daydé]https://fr.wikipedia.org/wiki/Joël_Daydé[/url];
Backing Vocals – Jackie Lee, Joan Baxter, June Jay, Laura Lee
Baritone Saxophone – Don Honeywill
Bass – Brian Odgers
Brass – Derek Watkins, Eddy Blair
Drums – Alf Bigden, Mike Gilles
Engineer – David Baker, Roger Guest
Flute – Roy Willox
Guitar – Clive Hicks, Martin Kershaw
Percussion – Johnny Dean, Tony Car, Tristan Fry
Piano – Rick Wakeman, Steve Grey
Trombone – Don Lusher
Правила, инструкции, FAQ!!!
Торрент  Добавлен [26 мар 2019, 19:30] Скачать торрент Магнет ссылка
Скачать торрент
[ Размер 15.63 КБ / Просмотров 0 ]

Статус
Проверен 
 
Размер  186.04 МБ
Приватный: Нет (DHT включён)
.torrent скачан  0
 


     Отправить личное сообщение
   
Страница 1 из 1
Показать сообщения за:  Поле сортировки  
Начать новую тему Ответить на тему


Сейчас этот форум просматривают: нет зарегистрированных пользователей и гости: 0


Вы не можете начинать темы
Вы не можете отвечать на сообщения
Вы не можете редактировать свои сообщения
Вы не можете удалять свои сообщения
Вы не можете добавлять вложения

Перейти:  
cron