Начать новую тему Ответить на тему
Статистика раздачи
Размер: 268.12 МБ | Добавлен: 26 мар 2019, 19:34 | Скачали: 0
Сидеров: 1  [0 байт/сек]    Личеров: 0  [0 байт/сек]
Пред. тема | След. тема 

Автор
Сообщение

СообщениеДобавлено: 26 мар 2019, 19:34 

Ответить с цитатой 

Billy Joel - The Bridge
Жанр: Rock
Год выпуска диска
: 1986
Производитель диска: USA
Аудио кодек: FLAC
Тип рипа: image+.cue
Битрейт аудио: lossless
Трэклист:
01. Running On Ice
02. This Is The Time
03. A Matter Of Trust
04. Modern Woman
05. Baby Grand-Duet With Ray Charles
06. Big Man On Mulberry Street
07. Tempatation
08. Code Of Silence
09. Getting Closer

Доп. информация: http://www.youtube.com/watch?v=Xx53c_6h-W4
Exact Audio Copy V0.99 prebeta 4 from 23. January 2008
EAC extraction logfile from 21. July 2008, 9:25
Joel, Billy / The Bridge
Used drive : LITE-ON COMBO SOHC-5236V Adapter: 0 ID: 0
Read mode : Secure
Utilize accurate stream : Yes
Defeat audio cache : Yes
Make use of C2 pointers : No
Read offset correction : 6
Overread into Lead-In and Lead-Out : No
Fill up missing offset samples with silence : Yes
Delete leading and trailing silent blocks : No
Null samples used in CRC calculations : No
Used interface : Installed external ASPI interface
Used output format : User Defined Encoder
Selected bitrate : 768 kBit/s
Quality : High
Add ID3 tag : No
Command line compressor : C:\Program Files\Exact Audio Copy\FLAC\FLAC.EXE
Additional command line options : -6 -V -T "ARTIST=%a" -T "TITLE=%t" -T "ALBUM=%g" -T "DATE=%y" -T "TRACKNUMBER=%n" -T "GENRE=%m" -T "COMMENT=%e" %s -o %d
TOC of the extracted CD
Track | Start | Length | Start sector | End sector
---------------------------------------------------------
1 | 0:00.00 | 3:15.02 | 0 | 14626
2 | 3:15.02 | 4:56.55 | 14627 | 36881
3 | 8:11.57 | 4:08.40 | 36882 | 55521
4 | 12:20.22 | 3:47.50 | 55522 | 72596
5 | 16:07.72 | 4:02.32 | 72597 | 90778
6 | 20:10.29 | 5:24.19 | 90779 | 115097
7 | 25:34.48 | 4:11.03 | 115098 | 133925
8 | 29:45.51 | 5:12.73 | 133926 | 157398
9 | 34:58.49 | 5:00.11 | 157399 | 179909
Range status and errors
Selected range
Filename C:\Documents and Settings\Admin\My Documents\My Music\billy\Joel, Billy - The Bridge.wav
Peak level 99.8 %
Range quality 100.0 %
Test CRC CBF1439F
Copy CRC CBF1439F
Copy OK
No errors occurred
End of status report
Правила, инструкции, FAQ!!!
Торрент  Добавлен [26 мар 2019, 19:34] Скачать торрент Магнет ссылка
Скачать торрент
[ Размер 11.23 КБ / Просмотров 13 ]

Статус
Проверен 
 
Размер  268.12 МБ
Приватный: Нет (DHT включён)
.torrent скачан  0
 


     Отправить личное сообщение
   
Страница 1 из 1
Показать сообщения за:  Поле сортировки  
Начать новую тему Ответить на тему


Сейчас этот форум просматривают: нет зарегистрированных пользователей и гости: 0


Вы не можете начинать темы
Вы не можете отвечать на сообщения
Вы не можете редактировать свои сообщения
Вы не можете удалять свои сообщения
Вы не можете добавлять вложения

Перейти:  
cron