Начать новую тему Ответить на тему
Статистика раздачи
Размер: 272.59 МБ | Добавлен: 26 мар 2019, 19:59 | Скачали: 1
Сидеров: 2  [0 байт/сек]    Личеров: 0  [0 байт/сек]
Пред. тема | След. тема 

Автор
Сообщение

СообщениеДобавлено: 26 мар 2019, 19:59 

Ответить с цитатой 

Billy Joel - Piano Man
Жанр: Rock
Год выпуска диска: 1990
Год первичного издания альбома на виниле: 1973
Производитель диска: USA
Аудио кодек: FLAC
Тип рипа: image+.cue
Битрейт аудио: lossless
Продолжительность: 43:38
Лейбл, каталог #: Columbia, CK 32544
EAN/UPC: 07464325442
Трэклист:
01. Travelin' Prayer [0:04:16.73]
02. Piano Man [0:05:39.10]
03. Ain't No Crime [0:03:19.20]
04. You're My Home [0:03:13.80]
05. The Ballad Of Billy The Kid [0:05:45.13]
06. Worse Comes To Worst [0:03:15.80]
07. Stop In Nevada [0:03:55.73]
08. If I Only Had The Words (To Tell You) [0:03:34.66]
09. Somewhere Along The Line [0:03:20.33]
10. Captain Jack [0:07:17.76]
Доп. информация:
Второй студийный альбом Billy Joel. Перед Вами одна из первых прессовок альбома на CD. Звучание отличное - без всякого ремастера.
Об альбоме: Wikipedia, Allmusic, SwapaCD, Discogs
Сканы 300dpi входят в раздачу.
На трекере также есть ремастер этого альбома - в следующей коллекции: (Rock) Billy Joel [1973-1983] {Japan Mini LP, 9CD} - 2004, APE (tracks+.cue), lossless.
Код:
Exact Audio Copy V0.99 prebeta 5 from 4. May 2009
EAC extraction logfile from 27. December 2009, 15:34
Billy Joel / Piano Man
Used drive  : HL-DT-STDVDRAM_GSA-T20N   Adapter: 1  ID: 0
Read mode               : Secure
Utilize accurate stream : Yes
Defeat audio cache      : Yes
Make use of C2 pointers : No
Read offset correction                      : 667
Overread into Lead-In and Lead-Out          : No
Fill up missing offset samples with silence : Yes
Delete leading and trailing silent blocks   : No
Null samples used in CRC calculations       : Yes
Used interface                              : Native Win32 interface for Win NT & 2000
Used output format              : User Defined Encoder
Selected bitrate                : 768 kBit/s
Quality                         : High
Add ID3 tag                     : No
Command line compressor         : C:\Program Files\Exact Audio Copy\Flac\flac.exe
Additional command line options : -6 -V -T "ARTIST=%a" -T "TITLE=%t" -T "ALBUM=%g" -T "DATE=%y" -T "TRACKNUMBER=%n" -T "GENRE=%m" -T "COMMENT=%e" %s -o %d
TOC of the extracted CD
     Track |   Start  |  Length  | Start sector | End sector
    ---------------------------------------------------------
        1  |  0:00.00 |  4:16.55 |         0    |    19254
        2  |  4:16.55 |  5:39.08 |     19255    |    44687
        3  |  9:55.63 |  3:19.15 |     44688    |    59627
        4  | 13:15.03 |  3:13.60 |     59628    |    74162
        5  | 16:28.63 |  5:45.10 |     74163    |   100047
        6  | 22:13.73 |  3:15.60 |    100048    |   114732
        7  | 25:29.58 |  3:55.55 |    114733    |   132412
        8  | 29:25.38 |  3:34.50 |    132413    |   148512
        9  | 33:00.13 |  3:20.25 |    148513    |   163537
       10  | 36:20.38 |  7:17.57 |    163538    |   196369
Range status and errors
Selected range
     Filename D:\Music\Billy Joel - Piano Man.wav
     Peak level 91.8 %
     Range quality 100.0 %
     Copy CRC A24D1882
     Copy OK
No errors occurred
AccurateRip summary
Track  1  accurately ripped (confidence 17)  [59EA90FB]
Track  2  accurately ripped (confidence 16)  [D8A63732]
Track  3  accurately ripped (confidence 17)  [9B2DAF8B]
Track  4  accurately ripped (confidence 17)  [F1D55A71]
Track  5  accurately ripped (confidence 17)  [CFD09EC0]
Track  6  accurately ripped (confidence 17)  [4DD5C228]
Track  7  accurately ripped (confidence 17)  [557D15EF]
Track  8  accurately ripped (confidence 17)  [C6CAD6B3]
Track  9  accurately ripped (confidence 17)  [D2A4770F]
Track 10  accurately ripped (confidence 17)  [65B40163]
All tracks accurately ripped
End of status report
Правила, инструкции, FAQ!!!
Торрент  Добавлен [26 мар 2019, 19:59] Скачать торрент Магнет ссылка
Скачать торрент
[ Размер 11.58 КБ / Просмотров 8 ]

Статус
Проверен 
 
Размер  272.59 МБ
Приватный: Нет (DHT включён)
.torrent скачан  1
 


     Отправить личное сообщение
   
Страница 1 из 1
Показать сообщения за:  Поле сортировки  
Начать новую тему Ответить на тему


Сейчас этот форум просматривают: нет зарегистрированных пользователей и гости: 0


Вы не можете начинать темы
Вы не можете отвечать на сообщения
Вы не можете редактировать свои сообщения
Вы не можете удалять свои сообщения
Вы не можете добавлять вложения

Перейти:  
cron