Начать новую тему Ответить на тему
Статистика раздачи
Размер: 223.95 МБ | Добавлен: 26 мар 2019, 20:00 | Скачали: 0
Сидеров: 0  [0 байт/сек]    Личеров: 0  [0 байт/сек]
Пред. тема | След. тема 

Автор
Сообщение

СообщениеДобавлено: 26 мар 2019, 20:00 

Ответить с цитатой 

Billy Joel / Night After Day
Жанр: Rock
Страна-производитель диска: EEC
Год издания диска: 1992
Издатель (лейбл): Pulsar
Номер по каталогу: PULS 029
Аудио кодек: FLAC (*.flac)
Тип рипа: tracks+.cue
Битрейт аудио: lossless
Продолжительность: 40:18
Источник (релизер): avaxhome.ws
Наличие сканов в содержимом раздачи: да
Треклист:
1 Night After Day 3:10
2 Cat 4:13
3 4 O'Clock In The Morning 3:06
4 Further Than Heaven 7:16
5 Land Of Despair 3:36
6 Hour Of TheWolf 11:36
7 Country Boy 2:34
8 Hotel St. George 4:52
Код:
Exact Audio Copy V0.99 prebeta 5 from 4. May 2009
EAC extraction logfile from 15. October 2010, 22:59
Billy Joel / Night After Day
Used drive  : HL-DT-STDVDRAM GSA-H12L   Adapter: 0  ID: 0
Read mode               : Secure
Utilize accurate stream : Yes
Defeat audio cache      : Yes
Make use of C2 pointers : No
Read offset correction                      : 667
Overread into Lead-In and Lead-Out          : No
Fill up missing offset samples with silence : Yes
Delete leading and trailing silent blocks   : No
Null samples used in CRC calculations       : Yes
Used interface                              : Installed external ASPI interface
Gap handling                                : Appended to previous track
Used output format              : User Defined Encoder
Selected bitrate                : 1024 kBit/s
Quality                         : High
Add ID3 tag                     : No
Command line compressor         : C:\Programme\FLAC\flac.exe
Additional command line options : -6 -T "Artist=%a" -T "Title=%t" -T "Album=%g" -T "Date=%y" -T "Tracknumber=%n" -T "Genre=%m" %s -o %d
TOC of the extracted CD
     Track |   Start  |  Length  | Start sector | End sector
    ---------------------------------------------------------
        1  |  0:00.33 |  3:08.67 |        33    |    14199
        2  |  3:09.25 |  4:12.68 |     14200    |    33167
        3  |  7:22.18 |  3:02.50 |     33168    |    46867
        4  | 10:24.68 |  7:15.00 |     46868    |    79492
        5  | 17:39.68 |  3:35.22 |     79493    |    95639
        6  | 21:15.15 | 11:37.63 |     95640    |   147977
        7  | 32:53.03 |  2:32.22 |    147978    |   159399
        8  | 35:25.25 |  4:52.08 |    159400    |   181307
Track  1
     Filename F:\=== VINYL RIPS ===\=== EAC===\01 Night after day.wav
     Pre-gap length  0:00:02.33
     Peak level 94.7 %
     Track quality 100.0 %
     Test CRC EE42FAE7
     Copy CRC EE42FAE7
     Accurately ripped (confidence 9)  [32B7F35A]
     Copy OK
Track  2
     Filename F:\=== VINYL RIPS ===\=== EAC===\02 Cat.wav
     Pre-gap length  0:00:01.67
     Peak level 90.7 %
     Track quality 100.0 %
     Test CRC DE7FA834
     Copy CRC DE7FA834
     Accurately ripped (confidence 9)  [0E4F96A8]
     Copy OK
Track  3
     Filename F:\=== VINYL RIPS ===\=== EAC===\03 4 o'clock in the morning.wav
     Pre-gap length  0:00:00.73
     Peak level 93.3 %
     Track quality 100.0 %
     Test CRC 7EAD49FD
     Copy CRC 7EAD49FD
     Accurately ripped (confidence 9)  [2E9FAD8A]
     Copy OK
Track  4
     Filename F:\=== VINYL RIPS ===\=== EAC===\04 Further than heaven.wav
     Pre-gap length  0:00:00.53
     Peak level 94.1 %
     Track quality 99.9 %
     Test CRC BC1DC936
     Copy CRC BC1DC936
     Accurately ripped (confidence 9)  [67FC0070]
     Copy OK
Track  5
     Filename F:\=== VINYL RIPS ===\=== EAC===\05 Land of Despair.wav
     Pre-gap length  0:00:02.03
     Peak level 85.9 %
     Track quality 100.0 %
     Test CRC 3DBCC077
     Copy CRC 3DBCC077
     Accurately ripped (confidence 9)  [18AF1574]
     Copy OK
Track  6
     Filename F:\=== VINYL RIPS ===\=== EAC===\06 Hour of the wolf.wav
     Pre-gap length  0:00:01.62
     Peak level 88.5 %
     Track quality 100.0 %
     Test CRC BAB52068
     Copy CRC BAB52068
     Accurately ripped (confidence 9)  [64A62D01]
     Copy OK
Track  7
     Filename F:\=== VINYL RIPS ===\=== EAC===\07 Country Boy.wav
     Pre-gap length  0:00:02.45
     Peak level 78.9 %
     Track quality 100.0 %
     Test CRC 17626B1D
     Copy CRC 17626B1D
     Accurately ripped (confidence 9)  [D97FA4EB]
     Copy OK
Track  8
     Filename F:\=== VINYL RIPS ===\=== EAC===\08 Hotel St. George.wav
     Pre-gap length  0:00:01.20
     Peak level 78.7 %
     Track quality 100.0 %
     Test CRC 912FAFA2
     Copy CRC 912FAFA2
     Accurately ripped (confidence 9)  [FE0346AE]
     Copy OK
All tracks accurately ripped
No errors occurred
End of status report
Код:
REM DATE 1992
REM DISCID 62097108
REM COMMENT "ExactAudioCopy v0.99pb5"
PERFORMER "Billy Joel"
TITLE "Night After Day"
FILE "01 Night after day.wav" WAVE
  TRACK 01 AUDIO
    TITLE "Night after day"
    PERFORMER "Billy Joel"
    PREGAP 00:00:33
    INDEX 01 00:00:00
  TRACK 02 AUDIO
    TITLE "Cat"
    PERFORMER "Billy Joel"
    INDEX 00 03:07:00
FILE "02 Cat.wav" WAVE
    INDEX 01 00:00:00
  TRACK 03 AUDIO
    TITLE "4 o'clock in the morning"
    PERFORMER "Billy Joel"
    INDEX 00 04:11:70
FILE "03 4 o'clock in the morning.wav" WAVE
    INDEX 01 00:00:00
  TRACK 04 AUDIO
    TITLE "Further than heaven"
    PERFORMER "Billy Joel"
    INDEX 00 03:01:72
FILE "04 Further than heaven.wav" WAVE
    INDEX 01 00:00:00
  TRACK 05 AUDIO
    TITLE "Land of Despair"
    PERFORMER "Billy Joel"
    INDEX 00 07:12:72
FILE "05 Land of Despair.wav" WAVE
    INDEX 01 00:00:00
  TRACK 06 AUDIO
    TITLE "Hour of the wolf"
    PERFORMER "Billy Joel"
    INDEX 00 03:33:35
FILE "06 Hour of the wolf.wav" WAVE
    INDEX 01 00:00:00
  TRACK 07 AUDIO
    TITLE "Country Boy"
    PERFORMER "Billy Joel"
    INDEX 00 11:35:18
FILE "07 Country Boy.wav" WAVE
    INDEX 01 00:00:00
  TRACK 08 AUDIO
    TITLE "Hotel St. George"
    PERFORMER "Billy Joel"
    INDEX 00 02:31:02
FILE "08 Hotel St. George.wav" WAVE
    INDEX 01 00:00:00
Код:
AUDIOCHECKER v2.0 beta (build 457) - by Dester - opdester@freemail.hu
~~~~~~~~~~~~~~~~~~~~~~~~~~~~~~~~~~
-=== DO NOT EDIT THIS FILE! ===-
Path: ...\Billy Joel - Night After Day (Pulsar PULS 029) (EU 1992)
1 -=- 08 Hotel St. George.flac -=- CDDA (99%)
2 -=- 01 Night after day.flac -=- CDDA (100%)
3 -=- 02 Cat.flac -=- CDDA (100%)
4 -=- 03 4 o'clock in the morning.flac -=- CDDA (100%)
5 -=- 04 Further than heaven.flac -=- CDDA (100%)
6 -=- 05 Land of Despair.flac -=- CDDA (100%)
7 -=- 06 Hour of the wolf.flac -=- CDDA (100%)
8 -=- 07 Country Boy.flac -=- CDDA (100%)
Summary 99,88% CDDA
72238164
Правила, инструкции, FAQ!!!
Торрент  Добавлен [26 мар 2019, 20:00] Скачать торрент Магнет ссылка
Скачать торрент
[ Размер 18.8 КБ / Просмотров 2 ]

Статус
Проверен 
 
Размер  223.95 МБ
Приватный: Нет (DHT включён)
.torrent скачан  0
 


     Отправить личное сообщение
   
Страница 1 из 1
Показать сообщения за:  Поле сортировки  
Начать новую тему Ответить на тему


Сейчас этот форум просматривают: нет зарегистрированных пользователей и гости: 0


Вы не можете начинать темы
Вы не можете отвечать на сообщения
Вы не можете редактировать свои сообщения
Вы не можете удалять свои сообщения
Вы не можете добавлять вложения

Перейти:  
cron