Начать новую тему Ответить на тему
Статистика раздачи
Размер: 224.25 МБ | Добавлен: 26 мар 2019, 20:00 | Скачали: 0
Сидеров: 1  [0 байт/сек]    Личеров: 0  [0 байт/сек]
Пред. тема | След. тема 

Автор
Сообщение

СообщениеДобавлено: 26 мар 2019, 20:00 

Ответить с цитатой 

Billy Joel - An Innocent Man

Жанр: Rock
Страна-производитель диска: UK
Год издания диска: Aug 1983
Издатель (лейбл): Sony Music Distribution
Аудиокодек: FLAC (*.flac)
Тип рипа: tracks
Битрейт аудио: lossless
Продолжительность: 40:25
Источник (релизер): what.cd
Наличие сканов в содержимом раздачи: Нет
Треклист:
01. Easy Money - 4:04
02. An Innocent Man - 5:17
03. The Longest Time - 3:42
04. This Night - 4:17
05. Tell Her About It - 3:52
06. Uptown Girl - 3:17
07. Careless Talk - 3:48
08. Christie Lee - 3:31
09. Leave a Tender Moment Alone - 3:56
10. Keeping the Faith - 4:41
Код:
Exact Audio Copy V0.99 prebeta 5 from 4. May 2009
EAC extraction logfile from 4. June 2009, 14:43
Billy Joel / An Innocent Man
Used drive  : ATAPI   DVD C  DH52C2P   Adapter: 0  ID: 1
Read mode               : Secure
Utilize accurate stream : Yes
Defeat audio cache      : Yes
Make use of C2 pointers : No
Read offset correction                      : 6
Overread into Lead-In and Lead-Out          : No
Fill up missing offset samples with silence : Yes
Delete leading and trailing silent blocks   : No
Null samples used in CRC calculations       : Yes
Used interface                              : Native Win32 interface for Win NT & 2000
Gap handling                                : Appended to previous track
Used output format              : User Defined Encoder
Selected bitrate                : 128 kBit/s
Quality                         : High
Add ID3 tag                     : No
Command line compressor         : C:\Program Files\Exact Audio Copy\Flac\flac.exe
Additional command line options : -V -8 -T "artist=%a" -T "title=%t" -T "album=%g" -T "date=%y" -T "tracknumber=%n" -T "genre=%m" %s
TOC of the extracted CD
     Track |   Start  |  Length  | Start sector | End sector
    ---------------------------------------------------------
        1  |  0:00.00 |  4:05.52 |         0    |    18426
        2  |  4:05.52 |  5:18.30 |     18427    |    42306
        3  |  9:24.07 |  3:37.58 |     42307    |    58639
        4  | 13:01.65 |  4:18.05 |     58640    |    77994
        5  | 17:19.70 |  3:51.05 |     77995    |    95324
        6  | 21:11.00 |  3:17.22 |     95325    |   110121
        7  | 24:28.22 |  3:47.15 |    110122    |   127161
        8  | 28:15.37 |  3:30.08 |    127162    |   142919
        9  | 31:45.45 |  3:56.30 |    142920    |   160649
       10  | 35:42.00 |  4:42.00 |    160650    |   181799
Track  1
     Filename D:\Rips\Billy Joel 01 Easy Money.wav
     Pre-gap length  0:00:02.00
     Peak level 99.6 %
     Track quality 99.9 %
     Test CRC 4696B437
     Copy CRC 4696B437
     Accurately ripped (confidence 6)  [49CE40D3]
     Copy OK
Track  2
     Filename D:\Rips\Billy Joel 02 An Innocent Man.wav
     Peak level 79.3 %
     Track quality 100.0 %
     Test CRC F73C0C5E
     Copy CRC F73C0C5E
     Accurately ripped (confidence 6)  [F08F5BFC]
     Copy OK
Track  3
     Filename D:\Rips\Billy Joel 03 Uptown Girl.wav
     Peak level 76.4 %
     Track quality 100.0 %
     Test CRC 53A66A6D
     Copy CRC 53A66A6D
     Accurately ripped (confidence 6)  [0072D6D6]
     Copy OK
Track  4
     Filename D:\Rips\Billy Joel 04 This Night.wav
     Peak level 83.8 %
     Track quality 100.0 %
     Test CRC 2118714D
     Copy CRC 2118714D
     Accurately ripped (confidence 6)  [B0DA12E1]
     Copy OK
Track  5
     Filename D:\Rips\Billy Joel 05 Tell Her About It.wav
     Peak level 90.8 %
     Track quality 100.0 %
     Test CRC 7B45F830
     Copy CRC 7B45F830
     Accurately ripped (confidence 6)  [AFE46B25]
     Copy OK
Track  6
     Filename D:\Rips\Billy Joel 06 The Longest Time.wav
     Peak level 100.0 %
     Track quality 100.0 %
     Test CRC 1C38B50A
     Copy CRC 1C38B50A
     Accurately ripped (confidence 6)  [512520E4]
     Copy OK
Track  7
     Filename D:\Rips\Billy Joel 07 Careless Talk.wav
     Peak level 71.7 %
     Track quality 100.0 %
     Test CRC 1B72077E
     Copy CRC 1B72077E
     Accurately ripped (confidence 6)  [2BBABEBE]
     Copy OK
Track  8
     Filename D:\Rips\Billy Joel 08 Christie Lee.wav
     Peak level 89.4 %
     Track quality 100.0 %
     Test CRC 3C089C27
     Copy CRC 3C089C27
     Accurately ripped (confidence 6)  [6D483588]
     Copy OK
Track  9
     Filename D:\Rips\Billy Joel 09 Leave A Tender Moment Alone.wav
     Peak level 93.8 %
     Track quality 100.0 %
     Test CRC 9A0B091D
     Copy CRC 9A0B091D
     Accurately ripped (confidence 6)  [FB5CB06D]
     Copy OK
Track 10
     Filename D:\Rips\Billy Joel 10 Keeping The Faith.wav
     Peak level 75.8 %
     Track quality 100.0 %
     Test CRC 852201CB
     Copy CRC 852201CB
     Accurately ripped (confidence 6)  [C0D1CDDF]
     Copy OK
All tracks accurately ripped
No errors occurred
End of status report

Код:
REM GENRE "Classic Rock"
REM DATE 1983
REM DISCID 8409780A
REM COMMENT "ExactAudioCopy v0.99pb5"
FILE "Billy Joel 01 Easy Money.wav" WAVE
  TRACK 01 AUDIO
    INDEX 01 00:00:00
FILE "Billy Joel 02 An Innocent Man.wav" WAVE
  TRACK 02 AUDIO
    INDEX 01 00:00:00
FILE "Billy Joel 03 Uptown Girl.wav" WAVE
  TRACK 03 AUDIO
    INDEX 01 00:00:00
FILE "Billy Joel 04 This Night.wav" WAVE
  TRACK 04 AUDIO
    INDEX 01 00:00:00
FILE "Billy Joel 05 Tell Her About It.wav" WAVE
  TRACK 05 AUDIO
    INDEX 01 00:00:00
FILE "Billy Joel 06 The Longest Time.wav" WAVE
  TRACK 06 AUDIO
    INDEX 01 00:00:00
FILE "Billy Joel 07 Careless Talk.wav" WAVE
  TRACK 07 AUDIO
    INDEX 01 00:00:00
FILE "Billy Joel 08 Christie Lee.wav" WAVE
  TRACK 08 AUDIO
    INDEX 01 00:00:00
FILE "Billy Joel 09 Leave A Tender Moment Alone.wav" WAVE
  TRACK 09 AUDIO
    INDEX 01 00:00:00
FILE "Billy Joel 10 Keeping The Faith.wav" WAVE
  TRACK 10 AUDIO
    INDEX 01 00:00:00

Правила, инструкции, FAQ!!!
Торрент  Добавлен [26 мар 2019, 20:00] Скачать торрент Магнет ссылка
Скачать торрент
[ Размер 18.62 КБ / Просмотров 1 ]

Статус
Проверен 
 
Размер  224.25 МБ
Приватный: Нет (DHT включён)
.torrent скачан  0
 


     Отправить личное сообщение
   
Страница 1 из 1
Показать сообщения за:  Поле сортировки  
Начать новую тему Ответить на тему


Сейчас этот форум просматривают: нет зарегистрированных пользователей и гости: 0


Вы не можете начинать темы
Вы не можете отвечать на сообщения
Вы не можете редактировать свои сообщения
Вы не можете удалять свои сообщения
Вы не можете добавлять вложения

Перейти:  
cron