Начать новую тему Ответить на тему
Статистика раздачи
Размер: 256.54 МБ | Добавлен: 26 мар 2019, 20:56 | Скачали: 0
Сидеров: 0  [0 байт/сек]    Личеров: 0  [0 байт/сек]
Пред. тема | След. тема 

Автор
Сообщение

СообщениеДобавлено: 26 мар 2019, 20:56 

Ответить с цитатой 

ARID / Little Things of Venom
Жанр: Rock
Страна-производитель диска: Бельгия
Год издания диска: 1998
Издатель (лейбл): Double-T Music
Номер по каталогу: DTM911101-2
Страна: Бельгия
Аудиокодек: FLAC (*.flac)
Тип рипа: tracks+.cue
Битрейт аудио: lossless
Продолжительность: 46:10
Источник (релизер): yourservice
Наличие сканов в содержимом раздачи: да
Треклист:
1. "At The Close Of Every Day" – 3:41
2. "Too Late Tonight" – 4:01
3. "All Will Wait" – 3:47
4. "Little Things Of Venom" – 4:35
5. "Believer" – 3:30
6. "Dearly Departed" – 5:41
7. "Me And My Melody" – 5:02
8. "World Weary Eyes" – 3:10
9. "Life" – 4:27
10. "Elegy" – 3:08

Дебютный альбом бельгийской группы,играющей неплохой рок с элементами альтернативы,волны.
Но главная фишка группы в вокале.Jasper Steverlinck
,поющий гитарист, имеет голос очень и очень похожий на Фредди Меркьюри.Но музыка совершенно иная.И тем не менее восприятие очень интересно....Судить Вам.
Спасибо за знакомство с группой Murlakatan.
Код:
Exact Audio Copy V0.99 prebeta 5 from 4. May 2009
EAC extraction logfile from 1. July 2010, 10:04
Arid / Little Things Of Venom
Used drive  :         DVD+RW RW5240   Adapter: 0  ID: 0
Read mode               : Secure
Utilize accurate stream : Yes
Defeat audio cache      : Yes
Make use of C2 pointers : No
Read offset correction                      : 91
Overread into Lead-In and Lead-Out          : No
Fill up missing offset samples with silence : Yes
Delete leading and trailing silent blocks   : No
Null samples used in CRC calculations       : Yes
Used interface                              : Native Win32 interface for Win NT & 2000
Gap handling                                : Appended to previous track
Used output format              : User Defined Encoder
Selected bitrate                : 320 kBit/s
Quality                         : High
Add ID3 tag                     : No
Command line compressor         : C:\Program Files (x86)\Exact Audio Copy\flac.exe
Additional command line options : -5 -V -T "artist=%a" -T "title=%t" -T "album=%g" -T "date=%y" -T "tracknumber=%n" -T "genre=%m" -T "comment=%e" %s -o %d
TOC of the extracted CD
     Track |   Start  |  Length  | Start sector | End sector
    ---------------------------------------------------------
        1  |  0:00.00 |  3:39.70 |         0    |    16494
        2  |  3:39.70 |  3:59.17 |     16495    |    34436
        3  |  7:39.12 |  3:45.30 |     34437    |    51341
        4  | 11:24.42 |  4:31.10 |     51342    |    71676
        5  | 15:55.52 |  3:28.18 |     71677    |    87294
        6  | 19:23.70 |  5:39.22 |     87295    |   112741
        7  | 25:03.17 |  5:00.00 |    112742    |   135241
        8  | 30:03.17 |  3:08.53 |    135242    |   149394
        9  | 33:11.70 |  4:25.10 |    149395    |   169279
       10  | 37:37.05 |  3:06.00 |    169280    |   183229
Track  1
     Filename D:\Klaar\Arid - Little Things Of Venom Flac\01 At The Close Of Every Day.wav
     Pre-gap length  0:00:02.00
     Peak level 99.9 %
     Track quality 100.0 %
     Test CRC F2E3A14C
     Copy CRC F2E3A14C
     Accurately ripped (confidence 8)  [6E660AB8]
     Copy OK
Track  2
     Filename D:\Klaar\Arid - Little Things Of Venom Flac\02 Too Late Tonight.wav
     Peak level 99.9 %
     Track quality 100.0 %
     Test CRC E9A1286E
     Copy CRC E9A1286E
     Accurately ripped (confidence 9)  [995FBC97]
     Copy OK
Track  3
     Filename D:\Klaar\Arid - Little Things Of Venom Flac\03 All Will Wait.wav
     Peak level 99.9 %
     Track quality 100.0 %
     Test CRC 09DD8D35
     Copy CRC 09DD8D35
     Accurately ripped (confidence 9)  [CCD85CDF]
     Copy OK
Track  4
     Filename D:\Klaar\Arid - Little Things Of Venom Flac\04 Little Things Of Venom.wav
     Peak level 99.9 %
     Track quality 100.0 %
     Test CRC C4A06A3E
     Copy CRC C4A06A3E
     Accurately ripped (confidence 9)  [DEF8FB57]
     Copy OK
Track  5
     Filename D:\Klaar\Arid - Little Things Of Venom Flac\05 Believer.wav
     Peak level 100.0 %
     Track quality 100.0 %
     Test CRC FB92A71E
     Copy CRC FB92A71E
     Accurately ripped (confidence 9)  [7DF12124]
     Copy OK
Track  6
     Filename D:\Klaar\Arid - Little Things Of Venom Flac\06 Dearly Departed.wav
     Peak level 100.0 %
     Track quality 100.0 %
     Test CRC 576762C0
     Copy CRC 576762C0
     Accurately ripped (confidence 9)  [D1E4A85C]
     Copy OK
Track  7
     Filename D:\Klaar\Arid - Little Things Of Venom Flac\07 Me And My Melody.wav
     Peak level 99.9 %
     Track quality 100.0 %
     Test CRC 431D7C7D
     Copy CRC 431D7C7D
     Accurately ripped (confidence 9)  [543FDCCB]
     Copy OK
Track  8
     Filename D:\Klaar\Arid - Little Things Of Venom Flac\08 World Weary Eyes.wav
     Peak level 100.0 %
     Track quality 100.0 %
     Test CRC 9C5880AA
     Copy CRC 9C5880AA
     Accurately ripped (confidence 9)  [8109683D]
     Copy OK
Track  9
     Filename D:\Klaar\Arid - Little Things Of Venom Flac\09 Life.wav
     Peak level 99.9 %
     Track quality 100.0 %
     Test CRC D04BC3EA
     Copy CRC D04BC3EA
     Accurately ripped (confidence 9)  [60611F73]
     Copy OK
Track 10
     Filename D:\Klaar\Arid - Little Things Of Venom Flac\10 Elegy.wav
     Peak level 99.9 %
     Track quality 100.0 %
     Test CRC E4186D44
     Copy CRC E4186D44
     Accurately ripped (confidence 9)  [2E432DB4]
     Copy OK
All tracks accurately ripped
No errors occurred
End of status report
Код:
REM GENRE Rock
REM DATE 1999
REM DISCID 89098B0A
REM COMMENT "ExactAudioCopy v0.99pb5"
PERFORMER "Arid"
TITLE "Little Things Of Venom"
FILE "01 At The Close Of Every Day.wav" WAVE
  TRACK 01 AUDIO
    TITLE "At The Close Of Every Day"
    PERFORMER "Arid"
    INDEX 01 00:00:00
FILE "02 Too Late Tonight.wav" WAVE
  TRACK 02 AUDIO
    TITLE "Too Late Tonight"
    PERFORMER "Arid"
    INDEX 01 00:00:00
FILE "03 All Will Wait.wav" WAVE
  TRACK 03 AUDIO
    TITLE "All Will Wait"
    PERFORMER "Arid"
    INDEX 01 00:00:00
FILE "04 Little Things Of Venom.wav" WAVE
  TRACK 04 AUDIO
    TITLE "Little Things Of Venom"
    PERFORMER "Arid"
    INDEX 01 00:00:00
FILE "05 Believer.wav" WAVE
  TRACK 05 AUDIO
    TITLE "Believer"
    PERFORMER "Arid"
    INDEX 01 00:00:00
FILE "06 Dearly Departed.wav" WAVE
  TRACK 06 AUDIO
    TITLE "Dearly Departed"
    PERFORMER "Arid"
    INDEX 01 00:00:00
FILE "07 Me And My Melody.wav" WAVE
  TRACK 07 AUDIO
    TITLE "Me And My Melody"
    PERFORMER "Arid"
    INDEX 01 00:00:00
FILE "08 World Weary Eyes.wav" WAVE
  TRACK 08 AUDIO
    TITLE "World Weary Eyes"
    PERFORMER "Arid"
    INDEX 01 00:00:00
FILE "09 Life.wav" WAVE
  TRACK 09 AUDIO
    TITLE "Life"
    PERFORMER "Arid"
    INDEX 01 00:00:00
FILE "10 Elegy.wav" WAVE
  TRACK 10 AUDIO
    TITLE "Elegy"
    PERFORMER "Arid"
    INDEX 01 00:00:00
- Jasper Steverlinck (vocals, guitar)
- David Du Pré (guitars)
- Steven Van Havere (drums)
- Filip Ros (bass)
- Dave Anderson (keyboards)
- David Dewaele (lap steel & slide guitar)
- Martin Ditchum (percussion)
- Steve Sidwell (trumpet)
- Audrey Riley (cello)
- Leo Payne (violin)
- Susan Dench (violin)
- Liz Partridge (viola strings)
- Piet Goddaer (string arrangements)
Правила, инструкции, FAQ!!!
Торрент  Добавлен [26 мар 2019, 20:56] Скачать торрент Магнет ссылка
Скачать торрент
[ Размер 11.18 КБ / Просмотров 8 ]

Статус
Проверен 
 
Размер  256.54 МБ
Приватный: Нет (DHT включён)
.torrent скачан  0
 


     Отправить личное сообщение
   
Страница 1 из 1
Показать сообщения за:  Поле сортировки  
Начать новую тему Ответить на тему


Сейчас этот форум просматривают: нет зарегистрированных пользователей и гости: 0


Вы не можете начинать темы
Вы не можете отвечать на сообщения
Вы не можете редактировать свои сообщения
Вы не можете удалять свои сообщения
Вы не можете добавлять вложения

Перейти:  
cron