Начать новую тему Ответить на тему
Статистика раздачи
Размер: 242.3 МБ | Добавлен: 26 мар 2019, 18:40 | Скачали: 0
Сидеров: 0  [0 байт/сек]    Личеров: 0  [0 байт/сек]
Пред. тема | След. тема 

Автор
Сообщение

СообщениеДобавлено: 26 мар 2019, 18:40 

Ответить с цитатой 

Chris Allen - Acetate
Жанр: Rock, Americana
Страна-производитель диска: USA
Год издания диска: 2010
Издатель (лейбл): Carp and Bones Music
Страна: USA
Аудиокодек: WAVPack (*.wv)
Тип рипа: image+.cue
Битрейт аудио: lossless
Продолжительность: 00:37:55
Источник (релизер): Гордый
Наличие сканов в содержимом раздачи:
Треклист:
01. Love Not Born 03:55
02. The Man Who Shook The World 02:35
03. I Don't Live Here Anymore 04:14
04. Immediate Blue 04:28
05. We Are Just Kids 03:43
06. Burn Down The Road 02:44
07. The Truth About Being In Love 02:28
08. People Need Targets 04:09
09. With The Morning Comes The Sun 03:15
10. Boy Meets Girl 03:43
11. Together We Are 02:42
Код:
Exact Audio Copy V1.0 beta 3 from 29. August 2011
EAC extraction logfile from 21. November 2011, 19:48
Chris Allen / Acetate
Used drive  : HL-DT-STDVD-RAM GH22LP20   Adapter: 4  ID: 1
Read mode               : Secure
Utilize accurate stream : Yes
Defeat audio cache      : Yes
Make use of C2 pointers : No
Read offset correction                      : 102
Overread into Lead-In and Lead-Out          : No
Fill up missing offset samples with silence : Yes
Delete leading and trailing silent blocks   : No
Null samples used in CRC calculations       : Yes
Used interface                              : Installed external ASPI interface
Used output format              : User Defined Encoder
Selected bitrate                : 896 kBit/s
Quality                         : High
Add ID3 tag                     : No
Command line compressor         : C:\Program Files (x86)\Exact Audio Copy\WAV Pack\wavpack.exe
Additional command line options : -hlmx2 %source% %dest%
TOC of the extracted CD
     Track |   Start  |  Length  | Start sector | End sector
    ---------------------------------------------------------
        1  |  0:00.00 |  3:55.18 |         0    |    17642
        2  |  3:55.18 |  2:34.48 |     17643    |    29240
        3  |  6:29.66 |  4:13.71 |     29241    |    48286
        4  | 10:43.62 |  4:27.68 |     48287    |    68379
        5  | 15:11.55 |  3:42.55 |     68380    |    85084
        6  | 18:54.35 |  2:43.67 |     85085    |    97376
        7  | 21:38.27 |  2:27.60 |     97377    |   108461
        8  | 24:06.12 |  4:09.26 |    108462    |   127162
        9  | 28:15.38 |  3:15.17 |    127163    |   141804
       10  | 31:30.55 |  3:43.07 |    141805    |   158536
       11  | 35:13.62 |  2:41.68 |    158537    |   170679
Range status and errors
Selected range
     Filename X:\Releases RAW\Chris Allen - Acetate\Chris Allen - Acetate.wav
     Peak level 100.0 %
     Extraction speed 2.5 X
     Range quality 100.0 %
     Test CRC 89A4E8A7
     Copy CRC 89A4E8A7
     Copy OK
No errors occurred
AccurateRip summary
Track  1  not present in database
Track  2  not present in database
Track  3  not present in database
Track  4  not present in database
Track  5  not present in database
Track  6  not present in database
Track  7  not present in database
Track  8  not present in database
Track  9  not present in database
Track 10  not present in database
Track 11  not present in database
None of the tracks are present in the AccurateRip database
End of status report
---- CUETools DB Plugin V2.1.3
[CTDB TOCID: SmPa0JtRFlQQhR8uGOmO.gLWfWI-] disk not present in database, Submit result: SmPa0JtRFlQQhR8uGOmO.gLWfWI- has been uploaded
==== Log checksum 4AE17B65F87169004522E1A7F7CA3E82ED0E6661718BFCDC9E42A238927A3B16 ====
Код:
REM GENRE "Americana"
REM DATE 2010
REM DISCID 8B08E30B
REM COMMENT "ExactAudioCopy v1.0b3"
PERFORMER "Chris Allen"
TITLE "Acetate"
FILE "Chris Allen - Acetate.wv" WAVE
  TRACK 01 AUDIO
    TITLE "Love Not Born"
    PERFORMER "Chris Allen"
    INDEX 01 00:00:00
  TRACK 02 AUDIO
    TITLE "The Man Who Shook The World"
    PERFORMER "Chris Allen"
    INDEX 00 03:52:48
    INDEX 01 03:55:18
  TRACK 03 AUDIO
    TITLE "I Don't Live Here Anymore"
    PERFORMER "Chris Allen"
    INDEX 00 06:29:21
    INDEX 01 06:29:66
  TRACK 04 AUDIO
    TITLE "Immediate Blue"
    PERFORMER "Chris Allen"
    INDEX 00 10:43:17
    INDEX 01 10:43:62
  TRACK 05 AUDIO
    TITLE "We Are Just Kids"
    PERFORMER "Chris Allen"
    INDEX 01 15:11:55
  TRACK 06 AUDIO
    TITLE "Burn Down The Road"
    PERFORMER "Chris Allen"
    INDEX 01 18:54:35
  TRACK 07 AUDIO
    TITLE "The Truth About Being In Love"
    PERFORMER "Chris Allen"
    INDEX 00 21:36:57
    INDEX 01 21:38:27
  TRACK 08 AUDIO
    TITLE "People Need Targets"
    PERFORMER "Chris Allen"
    INDEX 01 24:06:12
  TRACK 09 AUDIO
    TITLE "With The Morning Comes The Sun"
    PERFORMER "Chris Allen"
    INDEX 00 28:15:35
    INDEX 01 28:15:38
  TRACK 10 AUDIO
    TITLE "Boy Meets Girl"
    PERFORMER "Chris Allen"
    INDEX 01 31:30:55
  TRACK 11 AUDIO
    TITLE "Together We Are"
    PERFORMER "Chris Allen"
    INDEX 00 35:12:17
    INDEX 01 35:13:62
Код:
-----------------------
DON'T MODIFY THIS FILE
-----------------------
PERFORMER: auCDtect Task Manager, ver. 1.5.1RC4 build 1.5.1.5
Copyright (c) 2008-2010 y-soft. All rights reserved
[url=http://y-soft.org]http://y-soft.org[/url]
ANALYZER: auCDtect: CD records authenticity detector, version 0.8.2
Copyright (c) 2004 Oleg Berngardt. All rights reserved.
Copyright (c) 2004 Alexander Djourik. All rights reserved.
FILE: Chris Allen - Acetate.wv
  Size: 246987494 Hash: B595D93504F37776EC976D35CDA2FD47 Accuracy: -m0
  Conclusion: CDDA 99%
  Signature: 90D73E30A3F96357A4F12C1CF3053A642577B0EB
Код:
[CUETools log; Date: 05.04.2015 18:09:11; Version: 2.1.4]
[CTDB TOCID: SmPa0JtRFlQQhR8uGOmO.gLWfWI-] found.
Track | CTDB Status
  1   | (1/1) Accurately ripped
  2   | (1/1) Accurately ripped
  3   | (1/1) Accurately ripped
  4   | (1/1) Accurately ripped
  5   | (1/1) Accurately ripped
  6   | (1/1) Accurately ripped
  7   | (1/1) Accurately ripped
  8   | (1/1) Accurately ripped
  9   | (1/1) Accurately ripped
 10   | (1/1) Accurately ripped
 11   | (1/1) Accurately ripped
[AccurateRip ID: 00100ff4-008a6f67-8b08e30b] found.
Track   [  CRC   |   V2   ] Status
 01     [2f53b63d|66643ccd] (0+1/1) Accurately ripped
 02     [d2f93e5f|70e52a2f] (0+1/1) Accurately ripped
 03     [8d0dec00|8a393165] (0+1/1) Accurately ripped
 04     [095c7ca6|27919d50] (0+1/1) Accurately ripped
 05     [43f0baf4|bb7e2312] (0+1/1) Accurately ripped
 06     [2decd2b8|a16a79e3] (0+1/1) Accurately ripped
 07     [b2c3e600|42615062] (0+1/1) Accurately ripped
 08     [8cb63178|f541d661] (0+1/1) Accurately ripped
 09     [e6b6af23|0ab2c728] (0+1/1) Accurately ripped
 10     [8682369c|2072d4d8] (0+1/1) Accurately ripped
 11     [c4e8ecbd|0059ec50] (0+1/1) Accurately ripped
Track Peak [ CRC32  ] [W/O NULL] [  LOG   ]
 --  100,0 [89A4E8A7] [149A130E]   CRC32
 01   98,8 [C9F01EAA] [52660C83]
 02   98,8 [41FD9371] [B483F0F4]
 03   98,8 [86F9F8C3] [A7391503]
 04   98,8 [9F47052A] [6573004F]
 05   98,8 [B2C29ACA] [ECD79F34]
 06  100,0 [1BDB39D2] [370FC900]
 07   98,8 [F82AADF7] [F6F407D5]
 08   98,8 [7079D9C7] [A54388B5]
 09   98,8 [A31285A4] [E20D4817]
 10   98,8 [CED5EE0D] [E5A60603]
 11   98,7 [CB186D24] [593D2B14]
Доп. информация:
Chris Allen-ACETATE
“If you miss the straight talking side of Jeff Tweedy…you’ll want to get to know Chris Allen.” Bud Scopa, Paste Magazine
ACETATE is the new album by acclaimed songwriter Chris Allen. Since he and the guys in acclaimed alt-country heroes Rosavelt went their separate ways five years ago, Allen has delivered two stellar solo albums (2006’s The Big Apple Circus and 2008’s Things Unbroken) that feature songs that the Plain Dealer has said “read like Raymond Carver short stories.”
Allen’s latest work, ACETATE, is yet another accomplished effort. Produced by Don Dixon (Smithereens, R.E.M., Counting Crows), it commences with the Replacements-like anti-anthem “Love Not Born” and then proceeds to show just how much Allen has grown as a songwriter.
He gets a little help from his friends: Dixon plays a variety of instruments on the disc, adding bass, organ, lap harp, percussion, guitar and toy pianos; Marti Jones sings on backing vocals on the pretty ”With the Morning Comes the Sun”; and renowned bluesman Austin “Walkin’” Cane helps out with the songwriting on several tunes and plays guitar and vocals.
Said Dixon to the Plain Dealer about ACETATE, "Chris Allen is the most underrated songwriter in the country. People like Jeff Tweedy and Ryan Adams ought to be hiding outside his house going through the trash for his cast off material. Allen has a laser eye."
Acetate is undoubtedly Allen’s most eclectic effort to date. From bittersweet ballads such as “Boy Meets Girl” and “Together We Are” to raspy rockers like “The Man Who Shook the World” and “The Truth About Being in Love,” it’s an album that transcends genre and should establish Allen as a songwriter to be reckoned with.
www.chrisallenmusic.com
Правила, инструкции, FAQ!!!
Торрент  Добавлен [26 мар 2019, 18:40] Скачать торрент Магнет ссылка
Скачать торрент
[ Размер 20.32 КБ / Просмотров 1 ]

Статус
Проверен 
 
Размер  242.3 МБ
Приватный: Нет (DHT включён)
.torrent скачан  0
 


     Отправить личное сообщение
   
Страница 1 из 1
Показать сообщения за:  Поле сортировки  
Начать новую тему Ответить на тему


Сейчас этот форум просматривают: нет зарегистрированных пользователей и гости: 0


Вы не можете начинать темы
Вы не можете отвечать на сообщения
Вы не можете редактировать свои сообщения
Вы не можете удалять свои сообщения
Вы не можете добавлять вложения

Перейти:  
cron