Начать новую тему Ответить на тему
Статистика раздачи
Размер: 332.52 МБ | Добавлен: 26 мар 2019, 19:46 | Скачали: 0
Сидеров: 0  [0 байт/сек]    Личеров: 0  [0 байт/сек]
Пред. тема | След. тема 

Автор
Сообщение

СообщениеДобавлено: 26 мар 2019, 19:46 

Ответить с цитатой 

Train - Drops of Jupiter
Жанр: Rock, Alternative Rock
Год выпуска диска: 2001
Производитель диска: США
Аудио кодек: FLAC
Тип рипа: image+.cue
Битрейт аудио: lossless
Продолжительность: 48:33
Трэклист:
1. She's on Fire 3:49
2. I Wish You Would 4:25
3. Drops of Jupiter (Tell Me) 4:20
4. It's About You 4:27
5. Hopeless 4:31
6. Respect 3:25
7. Let It Roll 5:00
8. Something More 4:33
9. Whipping Boy 4:26
10. Getaway 4:26
11. Mississippi 5:00
Exact Audio Copy V0.99 prebeta 5 from 4. May 2009
EAC extraction logfile from 8. June 2010, 11:09
Train / Drops Of Jupiter
Used drive : PBDS DVD+-RW DS-8W1P Adapter: 0 ID: 0
Read mode : Secure
Utilize accurate stream : Yes
Defeat audio cache : Yes
Make use of C2 pointers : No
Read offset correction : 594
Overread into Lead-In and Lead-Out : No
Fill up missing offset samples with silence : Yes
Delete leading and trailing silent blocks : No
Null samples used in CRC calculations : Yes
Used interface : Installed external ASPI interface
Used output format : User Defined Encoder
Selected bitrate : 896 kBit/s
Quality : High
Add ID3 tag : No
Command line compressor : C:\Program Files\Exact Audio Copy\FLAC\FLAC.EXE
Additional command line options : -8 -V %s
TOC of the extracted CD
Track | Start | Length | Start sector | End sector
---------------------------------------------------------
1 | 0:00.00 | 3:49.36 | 0 | 17210
2 | 3:49.36 | 4:25.38 | 17211 | 37123
3 | 8:14.74 | 4:20.37 | 37124 | 56660
4 | 12:35.36 | 4:27.12 | 56661 | 76697
5 | 17:02.48 | 4:31.08 | 76698 | 97030
6 | 21:33.56 | 3:25.52 | 97031 | 112457
7 | 24:59.33 | 5:00.19 | 112458 | 134976
8 | 29:59.52 | 4:33.31 | 134977 | 155482
9 | 34:33.08 | 4:26.54 | 155483 | 175486
10 | 38:59.62 | 4:26.05 | 175487 | 195441
11 | 43:25.67 | 5:05.20 | 195442 | 218336
12 | 51:03.12 | 18:07.21 | 229737 | 311282
Range status and errors
Selected range
Filename D:\Раздачи\Train - Drops Of Jupiter.wav
Peak level 100.0 %
Range quality 100.0 %
Test CRC 24AE2FBC
Copy CRC 24AE2FBC
Copy OK
No errors occurred
AccurateRip summary
Track 1 accurately ripped (confidence 75) [D8D315FB]
Track 2 accurately ripped (confidence 75) [CF40998B]
Track 3 accurately ripped (confidence 76) [6E577A26]
Track 4 accurately ripped (confidence 72) [D3E8999C]
Track 5 accurately ripped (confidence 72) [21661371]
Track 6 accurately ripped (confidence 73) [E7063E90]
Track 7 accurately ripped (confidence 72) [4FF94921]
Track 8 accurately ripped (confidence 72) [9C8381EE]
Track 9 accurately ripped (confidence 72) [04F2069A]
Track 10 accurately ripped (confidence 71) [A45356E5]
Track 11 accurately ripped (confidence 68) [5D4A7D09]
All tracks accurately ripped
End of status report
Правила, инструкции, FAQ!!!
Торрент  Добавлен [26 мар 2019, 19:46] Скачать торрент Магнет ссылка
Скачать торрент
[ Размер 13.64 КБ / Просмотров 1 ]

Статус
Проверен 
 
Размер  332.52 МБ
Приватный: Нет (DHT включён)
.torrent скачан  0
 


     Отправить личное сообщение
   
Страница 1 из 1
Показать сообщения за:  Поле сортировки  
Начать новую тему Ответить на тему


Сейчас этот форум просматривают: нет зарегистрированных пользователей и гости: 0


Вы не можете начинать темы
Вы не можете отвечать на сообщения
Вы не можете редактировать свои сообщения
Вы не можете удалять свои сообщения
Вы не можете добавлять вложения

Перейти:  
cron