Начать новую тему Ответить на тему
Статистика раздачи
Размер: 257.39 МБ | Добавлен: 26 мар 2019, 19:10 | Скачали: 0
Сидеров: 0  [0 байт/сек]    Личеров: 0  [0 байт/сек]
Пред. тема | След. тема 

Автор
Сообщение

СообщениеДобавлено: 26 мар 2019, 19:10 

Ответить с цитатой 

Dream Command / Fire On The Moon
Жанр: Rock, Alternative Rock, Pop Rock
Страна-производитель диска: USA
Год издания диска: 1990
Издатель (лейбл): Island Records
Номер по каталогу: 260 880
Страна: USA
Аудио кодек: FLAC (*.flac)
Тип рипа: tracks+.cue
Битрейт аудио: lossless
Продолжительность: 00:37:56
Источник (релизер): собственный релиз
Наличие сканов в содержимом раздачи: да
Треклист:
01. Celestine
02. Whirlwind
03. Sleepwalking
04. Reach For Me
05. Ice Sculpture
06. Venus Hunter
07. Phantom Power
08. Transport Of Delight
09. She's Invisible
10. Mercury
Код:
Exact Audio Copy V0.99 prebeta 5 from 4. May 2009
EAC extraction logfile from 13. January 2011, 23:06
Dream Command  / Fire on the Moon
Used drive  : TSSTcorpCDDVDW TS-L633M   Adapter: 1  ID: 0
Read mode               : Secure
Utilize accurate stream : Yes
Defeat audio cache      : Yes
Make use of C2 pointers : No
Read offset correction                      : 6
Overread into Lead-In and Lead-Out          : No
Fill up missing offset samples with silence : Yes
Delete leading and trailing silent blocks   : No
Null samples used in CRC calculations       : Yes
Used interface                              : Native Win32 interface for Win NT & 2000
Gap handling                                : Appended to previous track
Used output format              : User Defined Encoder
Selected bitrate                : 128 kBit/s
Quality                         : High
Add ID3 tag                     : No
Command line compressor         : C:\Users\АОА\Desktop\Новая папка\bin\flac.exe
Additional command line options : -8 -V -T "ARTIST=%a" -T "TITLE=%t" -T "ALBUM=%g" -T "DATE=%y" -T "TRACKNUMBER=%n" -T "GENRE=%m" -T "COMMENT=EAC FLAC -8" %s
TOC of the extracted CD
     Track |   Start  |  Length  | Start sector | End sector
    ---------------------------------------------------------
        1  |  0:00.33 |  3:49.52 |        33    |    17259
        2  |  3:50.10 |  3:35.53 |     17260    |    33437
        3  |  7:25.63 |  5:14.12 |     33438    |    56999
        4  | 12:40.00 |  5:01.68 |     57000    |    79642
        5  | 17:41.68 |  4:44.37 |     79643    |   100979
        6  | 22:26.30 |  4:38.15 |    100980    |   121844
        7  | 27:04.45 |  3:46.25 |    121845    |   138819
        8  | 30:50.70 |  3:25.73 |    138820    |   154267
        9  | 34:16.68 |  4:03.72 |    154268    |   172564
       10  | 38:20.65 |  2:24.60 |    172565    |   183424
Track  1
     Filename C:\Users\АОА\Desktop\01. Dream Command – Celestine.wav
     Pre-gap length  0:00:02.44
     Peak level 91.9 %
     Track quality 100.0 %
     Test CRC 6544386B
     Copy CRC 6544386B
     Accurately ripped (confidence 1)  [258FA25A]
     Copy OK
Track  2
     Filename C:\Users\АОА\Desktop\02. Dream Command – Whirlwind.wav
     Pre-gap length  0:00:00.93
     Peak level 94.6 %
     Track quality 100.0 %
     Test CRC 4DF64DD0
     Copy CRC 4DF64DD0
     Accurately ripped (confidence 1)  [EB9227D5]
     Copy OK
Track  3
     Filename C:\Users\АОА\Desktop\03. Dream Command – Sleepwalking.wav
     Pre-gap length  0:00:04.37
     Peak level 100.0 %
     Track quality 99.9 %
     Test CRC 7B3F31D2
     Copy CRC 7B3F31D2
     Accurately ripped (confidence 1)  [60ACCD5D]
     Copy OK
Track  4
     Filename C:\Users\АОА\Desktop\04. Dream Command – Reach For Me.wav
     Peak level 100.0 %
     Track quality 100.0 %
     Test CRC 07C410AF
     Copy CRC 07C410AF
     Accurately ripped (confidence 1)  [A0D97E4C]
     Copy OK
Track  5
     Filename C:\Users\АОА\Desktop\05. Dream Command – Ice Sculpture.wav
     Pre-gap length  0:00:01.73
     Peak level 94.8 %
     Track quality 100.0 %
     Test CRC AAAB859E
     Copy CRC AAAB859E
     Accurately ripped (confidence 1)  [E289FFCC]
     Copy OK
Track  6
     Filename C:\Users\АОА\Desktop\06. Dream Command – Venus Hunte.wav
     Pre-gap length  0:00:01.33
     Peak level 90.2 %
     Track quality 100.0 %
     Test CRC A777A6DD
     Copy CRC A777A6DD
     Accurately ripped (confidence 1)  [2209611C]
     Copy OK
Track  7
     Filename C:\Users\АОА\Desktop\07. Dream Command – Phantom Power.wav
     Pre-gap length  0:00:00.09
     Peak level 97.6 %
     Track quality 100.0 %
     Test CRC BAC5EC85
     Copy CRC BAC5EC85
     Accurately ripped (confidence 1)  [B9D06740]
     Copy OK
Track  8
     Filename C:\Users\АОА\Desktop\08. Dream Command – Transport of Delight.wav
     Peak level 100.0 %
     Track quality 100.0 %
     Test CRC 9E2D3414
     Copy CRC 9E2D3414
     Accurately ripped (confidence 1)  [495F3695]
     Copy OK
Track  9
     Filename C:\Users\АОА\Desktop\09. Dream Command – She's Invisibl.wav
     Pre-gap length  0:00:01.26
     Peak level 100.0 %
     Track quality 100.0 %
     Test CRC 56F1D88A
     Copy CRC 56F1D88A
     Accurately ripped (confidence 1)  [CB11C718]
     Copy OK
Track 10
     Filename C:\Users\АОА\Desktop\10. Dream Command – Mercury.wav
     Pre-gap length  0:00:04.42
     Peak level 64.5 %
     Track quality 99.9 %
     Test CRC D90C74FD
     Copy CRC D90C74FD
     Accurately ripped (confidence 1)  [52610F75]
     Copy OK
All tracks accurately ripped
No errors occurred
End of status report
Код:
REM GENRE Rock
REM DATE 1990
REM DISCID 76098D0A
REM COMMENT "ExactAudioCopy v0.99pb5"
PERFORMER "Dream Command "
TITLE "Fire on the Moon "
FILE "01. Dream Command – Celestine.wav" WAVE
  TRACK 01 AUDIO
    TITLE "Celestine"
    PERFORMER "Dream Command "
    PREGAP 00:00:33
    INDEX 01 00:00:00
  TRACK 02 AUDIO
    TITLE "Whirlwind"
    PERFORMER "Dream Command "
    INDEX 00 03:48:57
FILE "02. Dream Command – Whirlwind.wav" WAVE
    INDEX 01 00:00:00
  TRACK 03 AUDIO
    TITLE "Sleepwalking"
    PERFORMER "Dream Command "
    INDEX 00 03:31:25
FILE "03. Dream Command – Sleepwalking.wav" WAVE
    INDEX 01 00:00:00
FILE "04. Dream Command – Reach For Me.wav" WAVE
  TRACK 04 AUDIO
    TITLE "Reach For Me"
    PERFORMER "Dream Command "
    INDEX 01 00:00:00
  TRACK 05 AUDIO
    TITLE "Ice Sculpture"
    PERFORMER "Dream Command "
    INDEX 00 05:00:13
FILE "05. Dream Command – Ice Sculpture.wav" WAVE
    INDEX 01 00:00:00
  TRACK 06 AUDIO
    TITLE "Venus Hunte"
    PERFORMER "Dream Command "
    INDEX 00 04:43:12
FILE "06. Dream Command – Venus Hunte.wav" WAVE
    INDEX 01 00:00:00
  TRACK 07 AUDIO
    TITLE "Phantom Power"
    PERFORMER "Dream Command "
    INDEX 00 04:38:08
FILE "07. Dream Command – Phantom Power.wav" WAVE
    INDEX 01 00:00:00
FILE "08. Dream Command – Transport of Delight.wav" WAVE
  TRACK 08 AUDIO
    TITLE "Transport of Delight"
    PERFORMER "Dream Command "
    INDEX 01 00:00:00
  TRACK 09 AUDIO
    TITLE "She's Invisibl"
    PERFORMER "Dream Command "
    INDEX 00 03:24:53
FILE "09. Dream Command – She's Invisibl.wav" WAVE
    INDEX 01 00:00:00
  TRACK 10 AUDIO
    TITLE "Mercury"
    PERFORMER "Dream Command "
    INDEX 00 03:59:40
FILE "10. Dream Command – Mercury.wav" WAVE
    INDEX 01 00:00:00
Правила, инструкции, FAQ!!!
Торрент  Добавлен [26 мар 2019, 19:10] Скачать торрент Магнет ссылка
Скачать торрент
[ Размер 11.45 КБ / Просмотров 0 ]

Статус
Проверен 
 
Размер  257.39 МБ
Приватный: Нет (DHT включён)
.torrent скачан  0
 


     Отправить личное сообщение
   
Страница 1 из 1
Показать сообщения за:  Поле сортировки  
Начать новую тему Ответить на тему


Сейчас этот форум просматривают: нет зарегистрированных пользователей и гости: 0


Вы не можете начинать темы
Вы не можете отвечать на сообщения
Вы не можете редактировать свои сообщения
Вы не можете удалять свои сообщения
Вы не можете добавлять вложения

Перейти:  
cron