Начать новую тему Ответить на тему
Статистика раздачи
Размер: 366.43 МБ | Добавлен: 26 мар 2019, 18:51 | Скачали: 0
Сидеров: 0  [0 байт/сек]    Личеров: 0  [0 байт/сек]
Пред. тема | След. тема 

Автор
Сообщение

СообщениеДобавлено: 26 мар 2019, 18:51 

Ответить с цитатой 

Long-View - Mercury
Жанр: Rock, Alternative
Год выпуска диска: 2003
Производитель диска: USA
Аудио кодек: APE
Тип рипа: image+.cue
Битрейт аудио: lossless
Продолжительность: 52:27
Трэклист:
1.Further
2.Can't Explain
3.When You Sleep
4.In a Dream
5.Nowhere
6.I Would
7.Electricity
8.Still
9.One More Try
10.Falling For You
11.If You Asked
12.Will You Wait Here
Доп. информация:
Код:
Exact Audio Copy V0.99 prebeta 4 from 23. January 2008
Отчёт EAC об извлечении, выполненном 5. февраля 2009, 12:22
Long-View / Mercury
Дисковод: _NEC    DVD_RW ND-4571A   Adapter: 0  ID: 0
Режим чтения                 : Достоверность
Использование точного потока : Да
Отключение кэша аудио        : Да
Использование указателей C2  : Нет
Коррекция смещения при чтении                     : 48
Способность читать области Lead-in и Lead-out     : Нет
Заполнение пропущенных сэмплов тишиной            : Да
Удаление блоков с тишиной в начале и конце        : Нет
При вычислениях CRC использовались нулевые сэмплы : Да
Интерфейс                                         : Встроенный Win32-интерфейс для Win NT/2000
Выходной формат : Внутренние WAV-операции
Формат сэмплов  : 44.100 Гц; 16 бит; стерео
TOC извлечённого CD
     Трек |   Старт  | Длительность | Начальный сектор | Конечный сектор
    ---------------------------------------------------------------------
       1  |  0:00.00 |    4:04.17   |           0      |      18316
       2  |  4:04.17 |    5:00.74   |       18317      |      40890
       3  |  9:05.16 |    3:59.19   |       40891      |      58834
       4  | 13:04.35 |    3:48.50   |       58835      |      75984
       5  | 16:53.10 |    3:49.09   |       75985      |      93168
       6  | 20:42.19 |    5:28.26   |       93169      |     117794
       7  | 26:10.45 |    3:33.07   |      117795      |     133776
       8  | 29:43.52 |    4:08.50   |      133777      |     152426
       9  | 33:52.27 |    3:43.53   |      152427      |     169204
      10  | 37:36.05 |    4:09.18   |      169205      |     187897
      11  | 41:45.23 |    4:37.24   |      187898      |     208696
      12  | 46:22.47 |    6:04.10   |      208697      |     236006
Характеристики диапазона извлечения и сообщения об ошибках
Выбранный диапазон
     Имя файла D:\Downloads\download\Long-View - Mercury\Long-View - Mercury.wav
     Пиковый уровень 100.0 %
     Качество диапазона 100.0 %
     CRC копии 0A7E2EA3
     Копирование... OK
Ошибок не произошло
AccurateRip: сводка
Трек  1  точное извлечение (доверие 5)  [77FE0E67]
Трек  2  точное извлечение (доверие 5)  [F1479160]
Трек  3  точное извлечение (доверие 5)  [2100CBEC]
Трек  4  точное извлечение (доверие 5)  [2EB0861A]
Трек  5  точное извлечение (доверие 5)  [FD02A491]
Трек  6  точное извлечение (доверие 5)  [6C9F8736]
Трек  7  точное извлечение (доверие 5)  [546D9BE6]
Трек  8  точное извлечение (доверие 5)  [151B283A]
Трек  9  точное извлечение (доверие 5)  [E13F7195]
Трек 10  точное извлечение (доверие 5)  [2B3F0AE2]
Трек 11  точное извлечение (доверие 5)  [694AA891]
Трек 12  точное извлечение (доверие 5)  [F6D6DF86]
Все треки извлечены точно
Конец отчёта
Label: Columbia
#: CK93669
Правила, инструкции, FAQ!!!
Торрент  Добавлен [26 мар 2019, 18:51] Скачать торрент Магнет ссылка
Скачать торрент
[ Размер 14.93 КБ / Просмотров 0 ]

Статус
Проверен 
 
Размер  366.43 МБ
Приватный: Нет (DHT включён)
.torrent скачан  0
 


     Отправить личное сообщение
   
Страница 1 из 1
Показать сообщения за:  Поле сортировки  
Начать новую тему Ответить на тему


Сейчас этот форум просматривают: нет зарегистрированных пользователей и гости: 0


Вы не можете начинать темы
Вы не можете отвечать на сообщения
Вы не можете редактировать свои сообщения
Вы не можете удалять свои сообщения
Вы не можете добавлять вложения

Перейти:  
cron