Начать новую тему Ответить на тему
Статистика раздачи
Размер: 70.24 МБ | Добавлен: 26 мар 2019, 20:44 | Скачали: 0
Сидеров: 1  [0 байт/сек]    Личеров: 5  [0 байт/сек]
Пред. тема | След. тема 

Автор
Сообщение

СообщениеДобавлено: 26 мар 2019, 20:44 

Ответить с цитатой 

Alanis Morissette «Thank U» [CD maxi-single]
Жанр: Rock Носитель: CD
Страна-производитель: Europe
Год издания: 1998
Издатель (лейбл): Maverick
Аудиокодек: FLAC (*.flac)
Тип рипа: tracks
Битрейт аудио: lossless
Продолжительность: 00:11:30
Треклист:
01. Thank U (Album Version) (04:20)
02. Pollyanna Flower (04:06)*
03. Uninvited (Demo) (03:03)
*Unreleased bonus track
Код:
Exact Audio Copy V1.1 from 23. June 2015
Отчёт EAC об извлечении, выполненном 18. июля 2016, 22:30
Alanis Morissette / Thank U (CD Single)
Дисковод: HL-DT-STDVDRAM GUC0N   Adapter: 0  ID: 0
Режим чтения                 : Достоверность
Использование точного потока : Да
Отключение кэша аудио        : Да
Использование указателей C2  : Нет
Коррекция смещения при чтении                     : 6
Способность читать области Lead-in и Lead-out     : Нет
Заполнение пропущенных сэмплов тишиной            : Да
Удаление блоков с тишиной в начале и конце        : Нет
При вычислениях CRC использовались нулевые сэмплы : Да
Интерфейс                                         : Установленный внешний ASPI-интерфейс
Обработка зазоров                                 : Добавлено к предыдущему треку
Выходной формат          : Пользовательский кодировщик
Выбранный битрейт        : 128 kBit/s
Качество                 : Высокий
Добавление ID3-тега      : Нет
Утилита сжатия           : C:\Program Files (x86)\Exact Audio Copy\FLAC\FLAC.EXE
Дополнительные параметры : -6 -V -T "ARTIST=%artist%" -T "TITLE=%title%" -T "ALBUM=%albumtitle%" -T "DATE=%year%" -T "TRACKNUMBER=%tracknr%" -T "GENRE=%genre%" -T "COMMENT=%comment%" -T "BAND=%albuminterpret%" -T "ALBUMARTIST=%albuminterpret%" -T "COMPOSER=%composer%" %haslyrics%--tag-from-file=LYRICS="%lyricsfile%"%haslyrics% -T "DISCNUMBER=%cdnumber%" -T "TOTALDISCS=%totalcds%" -T "TOTALTRACKS=%numtracks%" %hascover%--picture="%coverfile%"%hascover% %source% -o %dest%
TOC извлечённого CD
     Трек |   Старт  | Длительность | Начальный сектор | Конечный сектор
    ---------------------------------------------------------------------
       1  |  0:00.00 |    4:19.72   |           0      |      19496
       2  |  4:19.72 |    4:06.53   |       19497      |      37999
       3  |  8:26.50 |    3:03.17   |       38000      |      51741
Трек  1
     Имя файла C:\Users\hrust\Downloads\1998 Thank U\01. Thank U (Album Version).wav
     Длина предзазора  0:00:02.00
     Пиковый уровень 100.0 %
     Скорость извлечения 1.0 X
     Качество трека 99.9 %
     CRC теста 8D3931A1
     CRC копии 8D3931A1
     Точное извлечение (достоверность 36)  [DB929DD4]  (AR v2)
     Копирование... OK
Трек  2
     Имя файла C:\Users\hrust\Downloads\1998 Thank U\02. Pollyanna Flower (Unreleased Bonus Track).wav
     Длина предзазора  0:00:01.67
     Пиковый уровень 100.0 %
     Скорость извлечения 1.3 X
     Качество трека 100.0 %
     CRC теста 5A70E709
     CRC копии 5A70E709
     Точное извлечение (достоверность 37)  [B9123C50]  (AR v2)
     Копирование... OK
Трек  3
     Имя файла C:\Users\hrust\Downloads\1998 Thank U\03. Uninvited (Demo).wav
     Длина предзазора  0:00:01.20
     Пиковый уровень 100.0 %
     Скорость извлечения 1.3 X
     Качество трека 100.0 %
     CRC теста 93DE955B
     CRC копии 93DE955B
     Точное извлечение (достоверность 37)  [1664D534]  (AR v2)
     Копирование... OK
Все треки извлечены точно
Ошибок не произошло
Конец отчёта
---- CUETools DB Plugin V2.1.6
[CTDB TOCID: gUJmnJan_y20a8jWaKeS3CtVvrc-] found
Submit result: already submitted
Track | CTDB Status
  1   | (55/55) Accurately ripped
  2   | (55/55) Accurately ripped
  3   | (55/55) Accurately ripped
==== Контрольная сумма отчёта B21B4081878F91D9FB3E5C30C7FE2F8B0B3212EE00C6F9718B975054368FB829 ====
Код:
REM GENRE Alternative
REM DATE 1998
REM DISCID 1802B103
REM COMMENT "ExactAudioCopy v1.1"
CATALOG 9362445720204
PERFORMER "Alanis Morissette"
TITLE "Thank U (CD Single)"
FILE "01. Thank U (Album Version).wav" WAVE
  TRACK 01 AUDIO
    TITLE "Thank U (Album Version)"
    PERFORMER "Alanis Morissette"
    ISRC USMV29800119
    INDEX 01 00:00:00
  TRACK 02 AUDIO
    TITLE "Pollyanna Flower (Unreleased Bonus Track)"
    PERFORMER "Alanis Morissette"
    ISRC USMV29800120
    INDEX 00 04:18:05
FILE "02. Pollyanna Flower (Unreleased Bonus Track).wav" WAVE
    INDEX 01 00:00:00
  TRACK 03 AUDIO
    TITLE "Uninvited (Demo)"
    PERFORMER "Alanis Morissette"
    ISRC USMV29700215
    INDEX 00 04:05:33
FILE "03. Uninvited (Demo).wav" WAVE
    INDEX 01 00:00:00
Правила, инструкции, FAQ!!!
Торрент  Добавлен [26 мар 2019, 20:44] Скачать торрент Магнет ссылка
Скачать торрент
[ Размер 11.88 КБ / Просмотров 8 ]

Статус
Проверен 
 
Размер  70.24 МБ
Приватный: Нет (DHT включён)
.torrent скачан  0
 


     Отправить личное сообщение
   
Страница 1 из 1
Показать сообщения за:  Поле сортировки  
Начать новую тему Ответить на тему


Сейчас этот форум просматривают: нет зарегистрированных пользователей и гости: 0


Вы не можете начинать темы
Вы не можете отвечать на сообщения
Вы не можете редактировать свои сообщения
Вы не можете удалять свои сообщения
Вы не можете добавлять вложения

Перейти:  
cron