Начать новую тему Ответить на тему
Статистика раздачи
Размер: 400.27 МБ | Добавлен: 26 мар 2019, 20:35 | Скачали: 0
Сидеров: 0  [0 байт/сек]    Личеров: 0  [0 байт/сек]
Пред. тема | След. тема 

Автор
Сообщение

СообщениеДобавлено: 26 мар 2019, 20:35 

Ответить с цитатой 

U2 - 1999 - World Ballad Collection
Жанр: Rock
Год выпуска диска: 1999
Производитель диска: Compilation by STORM Records
Аудио кодек: FLAC
Тип рипа: tracks+.cue
Битрейт аудио: lossless
Продолжительность: 71.29
Трэклист:
01. Stay (Faraway, So Close)
02. So Cruel
03. The First Time
04. If God Will Send His Angels
05. With Or Without You
06. Mothers Of The Disappeared
07. Love Is Blindness
08. Unchained Melody
09. Staring At The Sun
10. One
11. The Ocean
12. Running To Stand Still
13. The Playboy Mansion
14. Trying To Throw Your Arms Around The World
+ bonus tracks:
15. Miss Saraevo (Original Soundtracks 1)
16. Frank Sinatra & Bono (Ve Got You Under My Skin)
Exact Audio Copy V0.99 prebeta 5 from 4. May 2009
EAC extraction logfile from 22. February 2010, 14:52
U2 / World Ballad Collection
Used drive : _NEC DVD_RW ND-4551A Adapter: 0 ID: 0
Read mode : Secure
Utilize accurate stream : Yes
Defeat audio cache : Yes
Make use of C2 pointers : No
Read offset correction : 48
Overread into Lead-In and Lead-Out : No
Fill up missing offset samples with silence : Yes
Delete leading and trailing silent blocks : No
Null samples used in CRC calculations : Yes
Used interface : Native Win32 interface for Win NT & 2000
Gap handling : Appended to previous track
Used output format : User Defined Encoder
Selected bitrate : 128 kBit/s
Quality : High
Add ID3 tag : No
Command line compressor : c:\Totalcmd\Utilites\Audio\EAC\Flac\flac.exe
Additional command line options : -8 -V -T "ARTIST=%a" -T "TITLE=%t" -T "ALBUM=%g" -T "DATE=%y" -T "TRACKNUMBER=%n" -T "GENRE=%m" %s
TOC of the extracted CD
Track | Start | Length | Start sector | End sector
---------------------------------------------------------
1 | 0:00.00 | 5:00.03 | 0 | 22502
2 | 5:00.03 | 5:49.09 | 22503 | 48686
3 | 10:49.12 | 3:46.57 | 48687 | 65693
4 | 14:35.69 | 5:17.48 | 65694 | 89516
5 | 19:53.42 | 4:54.17 | 89517 | 111583
6 | 24:47.59 | 4:55.71 | 111584 | 133779
7 | 29:43.55 | 4:17.13 | 133780 | 153067
8 | 34:00.68 | 4:49.72 | 153068 | 174814
9 | 38:50.65 | 4:36.37 | 174815 | 195551
10 | 43:27.27 | 4:36.37 | 195552 | 216288
11 | 48:03.64 | 1:31.29 | 216289 | 223142
12 | 49:35.18 | 4:09.07 | 223143 | 241824
13 | 53:44.25 | 4:39.38 | 241825 | 262787
14 | 58:23.63 | 3:52.04 | 262788 | 280191
15 | 62:15.67 | 5:42.37 | 280192 | 305878
16 | 67:58.29 | 3:30.34 | 305879 | 321662
Track 1
Filename C:\U2 - 1999 - World Ballad Collection\01 - Stay (Faraway, So Close).wav
Pre-gap length 0:00:02.00
Peak level 100.0 %
Track quality 100.0 %
Test CRC DF2FB8F4
Copy CRC DF2FB8F4
Copy OK
Track 2
Filename C:\U2 - 1999 - World Ballad Collection\02 - So Cruel.wav
Pre-gap length 0:00:02.00
Peak level 99.9 %
Track quality 100.0 %
Test CRC AF2434C2
Copy CRC AF2434C2
Copy OK
Track 3
Filename C:\U2 - 1999 - World Ballad Collection\03 - The First Time.wav
Pre-gap length 0:00:01.98
Peak level 98.8 %
Track quality 99.9 %
Test CRC 0C719088
Copy CRC 0C719088
Copy OK
Track 4
Filename C:\U2 - 1999 - World Ballad Collection\04 - If God Will Send His Angels.wav
Pre-gap length 0:00:02.00
Peak level 99.9 %
Track quality 100.0 %
Test CRC 300136B7
Copy CRC 300136B7
Copy OK
Track 5
Filename C:\U2 - 1999 - World Ballad Collection\05 - With Or Without You.wav
Pre-gap length 0:00:02.00
Peak level 100.0 %
Track quality 100.0 %
Test CRC 657270F5
Copy CRC 657270F5
Copy OK
Track 6
Filename C:\U2 - 1999 - World Ballad Collection\06 - Mothers Of The Disappeared.wav
Pre-gap length 0:00:02.00
Peak level 100.0 %
Track quality 100.0 %
Test CRC 72A28EB2
Copy CRC 72A28EB2
Copy OK
Track 7
Filename C:\U2 - 1999 - World Ballad Collection\07 - Love Is Blindness.wav
Pre-gap length 0:00:01.98
Peak level 99.9 %
Track quality 99.8 %
Test CRC 6F5830D9
Copy CRC 6F5830D9
Copy OK
Track 8
Filename C:\U2 - 1999 - World Ballad Collection\08 - Unchained Melody.wav
Pre-gap length 0:00:01.98
Peak level 100.0 %
Track quality 99.9 %
Test CRC 059E200E
Copy CRC 059E200E
Copy OK
Track 9
Filename C:\U2 - 1999 - World Ballad Collection\09 - Staring At The Sun.wav
Pre-gap length 0:00:02.00
Peak level 98.4 %
Track quality 100.0 %
Test CRC 68576F6C
Copy CRC 68576F6C
Copy OK
Track 10
Filename C:\U2 - 1999 - World Ballad Collection\10 - One.wav
Pre-gap length 0:00:02.00
Peak level 100.0 %
Track quality 100.0 %
Test CRC C0F42418
Copy CRC C0F42418
Copy OK
Track 11
Filename C:\U2 - 1999 - World Ballad Collection\11 - The Ocean.wav
Pre-gap length 0:00:02.00
Peak level 100.0 %
Track quality 100.0 %
Test CRC 309DCF7A
Copy CRC 309DCF7A
Copy OK
Track 12
Filename C:\U2 - 1999 - World Ballad Collection\12 - Running To Stand Still.wav
Pre-gap length 0:00:01.98
Peak level 100.0 %
Track quality 100.0 %
Test CRC DA20B1BB
Copy CRC DA20B1BB
Copy OK
Track 13
Filename C:\U2 - 1999 - World Ballad Collection\13 - The Playboy Mansion.wav
Pre-gap length 0:00:02.00
Peak level 99.9 %
Track quality 100.0 %
Test CRC 25A0D1CC
Copy CRC 25A0D1CC
Copy OK
Track 14
Filename C:\U2 - 1999 - World Ballad Collection\14 - Trying To Throw Your Arms Around The World.wav
Pre-gap length 0:00:02.00
Peak level 99.9 %
Track quality 99.4 %
Test CRC 72C02FE9
Copy CRC 72C02FE9
Copy OK
Track 15
Filename C:\U2 - 1999 - World Ballad Collection\15 - Miss Saraevo (Original Soundtracks 1).wav
Pre-gap length 0:00:02.00
Peak level 100.0 %
Track quality 100.0 %
Test CRC 2534ACF1
Copy CRC 2534ACF1
Copy OK
Track 16
Filename C:\U2 - 1999 - World Ballad Collection\16 - Frank Sinatra & Bono (Ve Got You Under My Skin).wav
Pre-gap length 0:00:01.98
Peak level 99.7 %
Track quality 100.0 %
Test CRC 893B3583
Copy CRC 893B3583
Copy OK
No errors occurred
End of status report
REM GENRE Rock
REM DATE 1999
REM DISCID F110C010
REM COMMENT "ExactAudioCopy v0.99pb5"
PERFORMER "U2"
TITLE "World Ballad Collection"
FILE "01 - Stay (Faraway, So Close).flac" WAVE
TRACK 01 AUDIO
TITLE "Stay (Faraway, So Close)"
PERFORMER "U2"
INDEX 01 00:00:00
FILE "02 - So Cruel.flac" WAVE
TRACK 02 AUDIO
TITLE "So Cruel"
PERFORMER "U2"
PREGAP 00:02:00
INDEX 01 00:00:00
FILE "03 - The First Time.flac" WAVE
TRACK 03 AUDIO
TITLE "The First Time"
PERFORMER "U2"
PREGAP 00:01:74
INDEX 01 00:00:00
FILE "04 - If God Will Send His Angels.flac" WAVE
TRACK 04 AUDIO
TITLE "If God Will Send His Angels"
PERFORMER "U2"
PREGAP 00:02:00
INDEX 01 00:00:00
FILE "05 - With Or Without You.flac" WAVE
TRACK 05 AUDIO
TITLE "With Or Without You"
PERFORMER "U2"
PREGAP 00:02:00
INDEX 01 00:00:00
FILE "06 - Mothers Of The Disappeared.flac" WAVE
TRACK 06 AUDIO
TITLE "Mothers Of The Disappeared"
PERFORMER "U2"
PREGAP 00:02:00
INDEX 01 00:00:00
FILE "07 - Love Is Blindness.flac" WAVE
TRACK 07 AUDIO
TITLE "Love Is Blindness"
PERFORMER "U2"
PREGAP 00:01:74
INDEX 01 00:00:00
FILE "08 - Unchained Melody.flac" WAVE
TRACK 08 AUDIO
TITLE "Unchained Melody"
PERFORMER "U2"
PREGAP 00:01:74
INDEX 01 00:00:00
FILE "09 - Staring At The Sun.flac" WAVE
TRACK 09 AUDIO
TITLE "Staring At The Sun"
PERFORMER "U2"
PREGAP 00:02:00
INDEX 01 00:00:00
FILE "10 - One.flac" WAVE
TRACK 10 AUDIO
TITLE "One"
PERFORMER "U2"
PREGAP 00:02:00
INDEX 01 00:00:00
FILE "11 - The Ocean.flac" WAVE
TRACK 11 AUDIO
TITLE "The Ocean"
PERFORMER "U2"
PREGAP 00:02:00
INDEX 01 00:00:00
FILE "12 - Running To Stand Still.flac" WAVE
TRACK 12 AUDIO
TITLE "Running To Stand Still"
PERFORMER "U2"
PREGAP 00:01:74
INDEX 01 00:00:00
FILE "13 - The Playboy Mansion.flac" WAVE
TRACK 13 AUDIO
TITLE "The Playboy Mansion"
PERFORMER "U2"
PREGAP 00:02:00
INDEX 01 00:00:00
FILE "14 - Trying To Throw Your Arms Around The World.flac" WAVE
TRACK 14 AUDIO
TITLE "Trying To Throw Your Arms Around The World"
PERFORMER "U2"
PREGAP 00:02:00
INDEX 01 00:00:00
FILE "15 - Miss Saraevo (Original Soundtracks 1).flac" WAVE
TRACK 15 AUDIO
TITLE "Miss Saraevo (Original Soundtracks 1)"
PERFORMER "U2"
PREGAP 00:02:00
INDEX 01 00:00:00
FILE "16 - Frank Sinatra & Bono (Ve Got You Under My Skin).flac" WAVE
TRACK 16 AUDIO
TITLE "Frank Sinatra & Bono (Ve Got You Under My Skin)"
PERFORMER "U2"
PREGAP 00:01:74
INDEX 01 00:00:00
Правила, инструкции, FAQ!!!
Торрент  Добавлен [26 мар 2019, 20:35] Скачать торрент Магнет ссылка
Скачать торрент
[ Размер 33.09 КБ / Просмотров 3 ]

Статус
Проверен 
 
Размер  400.27 МБ
Приватный: Нет (DHT включён)
.torrent скачан  0
 


     Отправить личное сообщение
   
Страница 1 из 1
Показать сообщения за:  Поле сортировки  
Начать новую тему Ответить на тему


Сейчас этот форум просматривают: нет зарегистрированных пользователей и гости: 0


Вы не можете начинать темы
Вы не можете отвечать на сообщения
Вы не можете редактировать свои сообщения
Вы не можете удалять свои сообщения
Вы не можете добавлять вложения

Перейти:  
cron